  0
SECTION
  2
HEADER
  9
$ACADVER
  1
AC1015
  9
$ACADMAINTVER
 70
    20
  9
$DWGCODEPAGE
  3
ANSI_932
  9
$INSBASE
 10
0.0
 20
0.0
 30
0.0
  9
$EXTMIN
 10
554.1603696963461
 20
430.1498270145568
 30
0.0
  9
$EXTMAX
 10
835.2239964131145
 20
625.1498270145568
 30
0.0
  9
$LIMMIN
 10
554.1603696963461
 20
430.1498270145568
  9
$LIMMAX
 10
834.6603696963461
 20
625.1498270145567
  9
$ORTHOMODE
 70
     1
  9
$REGENMODE
 70
     1
  9
$FILLMODE
 70
     1
  9
$QTEXTMODE
 70
     0
  9
$MIRRTEXT
 70
     1
  9
$LTSCALE
 40
1.0
  9
$ATTMODE
 70
     1
  9
$TEXTSIZE
 40
2.5
  9
$TRACEWID
 40
1.0
  9
$TEXTSTYLE
  7
Standard
  9
$CLAYER
  8
LAYER01
  9
$CELTYPE
  6
ByLayer
  9
$CECOLOR
 62
   256
  9
$CELTSCALE
 40
1.0
  9
$DISPSILH
 70
     0
  9
$DIMSCALE
 40
1.0
  9
$DIMASZ
 40
2.5
  9
$DIMEXO
 40
0.625
  9
$DIMDLI
 40
3.75
  9
$DIMRND
 40
0.0
  9
$DIMDLE
 40
0.0
  9
$DIMEXE
 40
1.25
  9
$DIMTP
 40
0.0
  9
$DIMTM
 40
0.0
  9
$DIMTXT
 40
2.5
  9
$DIMCEN
 40
2.5
  9
$DIMTSZ
 40
0.0
  9
$DIMTOL
 70
     0
  9
$DIMLIM
 70
     0
  9
$DIMTIH
 70
     0
  9
$DIMTOH
 70
     0
  9
$DIMSE1
 70
     0
  9
$DIMSE2
 70
     0
  9
$DIMTAD
 70
     1
  9
$DIMZIN
 70
     8
  9
$DIMBLK
  1

  9
$DIMASO
 70
     1
  9
$DIMSHO
 70
     1
  9
$DIMPOST
  1

  9
$DIMAPOST
  1

  9
$DIMALT
 70
     0
  9
$DIMALTD
 70
     3
  9
$DIMALTF
 40
0.03937007874016
  9
$DIMLFAC
 40
1.0
  9
$DIMTOFL
 70
     1
  9
$DIMTVP
 40
0.0
  9
$DIMTIX
 70
     0
  9
$DIMSOXD
 70
     0
  9
$DIMSAH
 70
     0
  9
$DIMBLK1
  1

  9
$DIMBLK2
  1

  9
$DIMSTYLE
  2
ISO-25
  9
$DIMCLRD
 70
     0
  9
$DIMCLRE
 70
     0
  9
$DIMCLRT
 70
     0
  9
$DIMTFAC
 40
1.0
  9
$DIMGAP
 40
0.625
  9
$DIMJUST
 70
     0
  9
$DIMSD1
 70
     0
  9
$DIMSD2
 70
     0
  9
$DIMTOLJ
 70
     0
  9
$DIMTZIN
 70
     8
  9
$DIMALTZ
 70
     0
  9
$DIMALTTZ
 70
     0
  9
$DIMUPT
 70
     0
  9
$DIMDEC
 70
     2
  9
$DIMTDEC
 70
     2
  9
$DIMALTU
 70
     2
  9
$DIMALTTD
 70
     3
  9
$DIMTXSTY
  7
Standard
  9
$DIMAUNIT
 70
     0
  9
$DIMADEC
 70
     0
  9
$DIMALTRND
 40
0.0
  9
$DIMAZIN
 70
     0
  9
$DIMDSEP
 70
    44
  9
$DIMATFIT
 70
     3
  9
$DIMFRAC
 70
     0
  9
$DIMLDRBLK
  1

  9
$DIMLUNIT
 70
     2
  9
$DIMLWD
 70
    -2
  9
$DIMLWE
 70
    -2
  9
$DIMTMOVE
 70
     0
  9
$LUNITS
 70
     2
  9
$LUPREC
 70
     4
  9
$SKETCHINC
 40
1.0
  9
$FILLETRAD
 40
1.0
  9
$AUNITS
 70
     0
  9
$AUPREC
 70
     0
  9
$MENU
  1
.
  9
$ELEVATION
 40
0.0
  9
$PELEVATION
 40
0.0
  9
$THICKNESS
 40
0.0
  9
$LIMCHECK
 70
     0
  9
$CHAMFERA
 40
0.0
  9
$CHAMFERB
 40
0.0
  9
$CHAMFERC
 40
20.0
  9
$CHAMFERD
 40
0.0
  9
$SKPOLY
 70
     0
  9
$TDCREATE
 40
2454504.395150197
  9
$TDUCREATE
 40
2454504.020150197
  9
$TDUPDATE
 40
2457871.400804386
  9
$TDUUPDATE
 40
2457871.025804386
  9
$TDINDWG
 40
1.2900545486
  9
$TDUSRTIMER
 40
2457515.097256285
  9
$USRTIMER
 70
     1
  9
$ANGBASE
 50
0.0
  9
$ANGDIR
 70
     0
  9
$PDMODE
 70
     0
  9
$PDSIZE
 40
0.0
  9
$PLINEWID
 40
0.0
  9
$SPLFRAME
 70
     0
  9
$SPLINETYPE
 70
     6
  9
$SPLINESEGS
 70
     8
  9
$HANDSEED
  5
384C
  9
$SURFTAB1
 70
     6
  9
$SURFTAB2
 70
     6
  9
$SURFTYPE
 70
     6
  9
$SURFU
 70
     6
  9
$SURFV
 70
     6
  9
$UCSBASE
  2

  9
$UCSNAME
  2

  9
$UCSORG
 10
0.0
 20
0.0
 30
0.0
  9
$UCSXDIR
 10
1.0
 20
0.0
 30
0.0
  9
$UCSYDIR
 10
0.0
 20
1.0
 30
0.0
  9
$UCSORTHOREF
  2

  9
$UCSORTHOVIEW
 70
     0
  9
$UCSORGTOP
 10
0.0
 20
0.0
 30
0.0
  9
$UCSORGBOTTOM
 10
0.0
 20
0.0
 30
0.0
  9
$UCSORGLEFT
 10
0.0
 20
0.0
 30
0.0
  9
$UCSORGRIGHT
 10
0.0
 20
0.0
 30
0.0
  9
$UCSORGFRONT
 10
0.0
 20
0.0
 30
0.0
  9
$UCSORGBACK
 10
0.0
 20
0.0
 30
0.0
  9
$PUCSBASE
  2

  9
$PUCSNAME
  2

  9
$PUCSORG
 10
0.0
 20
0.0
 30
0.0
  9
$PUCSXDIR
 10
1.0
 20
0.0
 30
0.0
  9
$PUCSYDIR
 10
0.0
 20
1.0
 30
0.0
  9
$PUCSORTHOREF
  2

  9
$PUCSORTHOVIEW
 70
     0
  9
$PUCSORGTOP
 10
0.0
 20
0.0
 30
0.0
  9
$PUCSORGBOTTOM
 10
0.0
 20
0.0
 30
0.0
  9
$PUCSORGLEFT
 10
0.0
 20
0.0
 30
0.0
  9
$PUCSORGRIGHT
 10
0.0
 20
0.0
 30
0.0
  9
$PUCSORGFRONT
 10
0.0
 20
0.0
 30
0.0
  9
$PUCSORGBACK
 10
0.0
 20
0.0
 30
0.0
  9
$USERI1
 70
     0
  9
$USERI2
 70
     0
  9
$USERI3
 70
     0
  9
$USERI4
 70
     0
  9
$USERI5
 70
     0
  9
$USERR1
 40
0.0
  9
$USERR2
 40
0.0
  9
$USERR3
 40
0.0
  9
$USERR4
 40
0.0
  9
$USERR5
 40
0.0
  9
$WORLDVIEW
 70
     1
  9
$SHADEDGE
 70
     3
  9
$SHADEDIF
 70
    70
  9
$TILEMODE
 70
     1
  9
$MAXACTVP
 70
    64
  9
$PINSBASE
 10
0.0
 20
0.0
 30
0.0
  9
$PLIMCHECK
 70
     0
  9
$PEXTMIN
 10
0.0
 20
0.0
 30
0.0
  9
$PEXTMAX
 10
0.0
 20
0.0
 30
0.0
  9
$PLIMMIN
 10
0.0
 20
0.0
  9
$PLIMMAX
 10
12.0
 20
9.0
  9
$UNITMODE
 70
     0
  9
$VISRETAIN
 70
     1
  9
$PLINEGEN
 70
     0
  9
$PSLTSCALE
 70
     1
  9
$TREEDEPTH
 70
  3020
  9
$CMLSTYLE
  2
Standard
  9
$CMLJUST
 70
     0
  9
$CMLSCALE
 40
20.0
  9
$PROXYGRAPHICS
 70
     1
  9
$MEASUREMENT
 70
     1
  9
$CELWEIGHT
370
    -1
  9
$ENDCAPS
280
     0
  9
$JOINSTYLE
280
     0
  9
$LWDISPLAY
290
     0
  9
$INSUNITS
 70
     4
  9
$HYPERLINKBASE
  1

  9
$STYLESHEET
  1
MONOCHROME.CTB
  9
$XEDIT
290
     1
  9
$CEPSNTYPE
380
     0
  9
$PSTYLEMODE
290
     1
  9
$FINGERPRINTGUID
  2
{FDEAD578-A652-11D2-9A35-0060089B3A3F}
  9
$VERSIONGUID
  2
{B24875DE-E290-425F-AAA0-45FC2CBDC65F}
  9
$EXTNAMES
290
     1
  9
$PSVPSCALE
 40
0.0
  9
$OLESTARTUP
290
     0
  0
ENDSEC
  0
SECTION
  2
CLASSES
  0
CLASS
  1
ACDBDICTIONARYWDFLT
  2
AcDbDictionaryWithDefault
  3
ObjectDBX Classes
 90
        0
280
     0
281
     0
  0
CLASS
  1
ACDBPLACEHOLDER
  2
AcDbPlaceHolder
  3
ObjectDBX Classes
 90
        0
280
     0
281
     0
  0
CLASS
  1
LAYOUT
  2
AcDbLayout
  3
ObjectDBX Classes
 90
        0
280
     0
281
     0
  0
CLASS
  1
MATERIAL
  2
AcDbMaterial
  3
ObjectDBX Classes
 90
     1153
280
     0
281
     0
  0
CLASS
  1
VISUALSTYLE
  2
AcDbVisualStyle
  3
ObjectDBX Classes
 90
     4095
280
     0
281
     0
  0
CLASS
  1
TABLESTYLE
  2
AcDbTableStyle
  3
ObjectDBX Classes
 90
     4095
280
     0
281
     0
  0
CLASS
  1
SCALE
  2
AcDbScale
  3
ObjectDBX Classes
 90
     1153
280
     0
281
     0
  0
CLASS
  1
MLEADERSTYLE
  2
AcDbMLeaderStyle
  3
ACDB_MLEADERSTYLE_CLASS
 90
     4095
280
     0
281
     0
  0
CLASS
  1
ACDBSECTIONVIEWSTYLE
  2
AcDbSectionViewStyle
  3
ObjectDBX Classes
 90
     1025
280
     0
281
     0
  0
CLASS
  1
ACDBDETAILVIEWSTYLE
  2
AcDbDetailViewStyle
  3
ObjectDBX Classes
 90
     1025
280
     0
281
     0
  0
CLASS
  1
DICTIONARYVAR
  2
AcDbDictionaryVar
  3
ObjectDBX Classes
 90
        0
280
     0
281
     0
  0
CLASS
  1
SUN
  2
AcDbSun
  3
SCENEOE
 90
    33921
280
     0
281
     0
  0
CLASS
  1
RASTERVARIABLES
  2
AcDbRasterVariables
  3
ISM
 90
        0
280
     0
281
     0
  0
CLASS
  1
SORTENTSTABLE
  2
AcDbSortentsTable
  3
ObjectDBX Classes
 90
    32768
280
     0
281
     0
  0
CLASS
  1
CELLSTYLEMAP
  2
AcDbCellStyleMap
  3
ObjectDBX Classes
 90
     1152
280
     0
281
     0
  0
ENDSEC
  0
SECTION
  2
TABLES
  0
TABLE
  2
VPORT
  5
8
330
0
100
AcDbSymbolTable
 70
     1
  0
VPORT
  5
103F
330
8
100
AcDbSymbolTableRecord
100
AcDbViewportTableRecord
  2
*Active
 70
     0
 10
0.0
 20
0.0
 11
1.0
 21
1.0
 12
726.415327473774
 22
580.0116042893533
 13
0.0
 23
0.0
 14
0.25
 24
0.25
 15
10.0
 25
10.0
 16
0.0
 26
0.0
 36
1.0
 17
0.0
 27
0.0
 37
0.0
 40
155.7666783931558
 41
1.933823529411764
 42
50.0
 43
0.0
 44
0.0
 50
0.0
 51
0.0
 71
    16
 72
   100
 73
     1
 74
     3
 75
     0
 76
     0
 77
     0
 78
     0
281
     0
 65
     1
110
0.0
120
0.0
130
0.0
111
1.0
121
0.0
131
0.0
112
0.0
122
1.0
132
0.0
 79
     0
146
0.0
1001
ACAD_NAV_VCDISPLAY
1070
     3
  0
ENDTAB
  0
TABLE
  2
LTYPE
  5
5
330
0
100
AcDbSymbolTable
 70
    40
  0
LTYPE
  5
14
330
5
100
AcDbSymbolTableRecord
100
AcDbLinetypeTableRecord
  2
ByBlock
 70
     0
  3

 72
    65
 73
     0
 40
0.0
  0
LTYPE
  5
15
330
5
100
AcDbSymbolTableRecord
100
AcDbLinetypeTableRecord
  2
ByLayer
 70
     0
  3

 72
    65
 73
     0
 40
0.0
  0
LTYPE
  5
16
330
5
100
AcDbSymbolTableRecord
100
AcDbLinetypeTableRecord
  2
Continuous
 70
     0
  3
Solid line
 72
    65
 73
     0
 40
0.0
  0
LTYPE
  5
211
330
5
100
AcDbSymbolTableRecord
100
AcDbLinetypeTableRecord
  2
CENTER
 70
     0
  3
____ _ ____ _ ____ _ ____ _ 
 72
    65
 73
     4
 40
50.8
 49
31.75
 74
     0
 49
-6.349999999999997
 74
     0
 49
6.349999999999997
 74
     0
 49
-6.349999999999997
 74
     0
  0
LTYPE
  5
397
330
5
100
AcDbSymbolTableRecord
100
AcDbLinetypeTableRecord
  2
HIDDEN
 70
     0
  3
_ _ _ _ _ _ _ _ _ _ _ _ _ _ 
 72
    65
 73
     2
 40
9.525
 49
6.349999999999998
 74
     0
 49
-3.174999999999998
 74
     0
  0
LTYPE
  5
398
330
5
100
AcDbSymbolTableRecord
100
AcDbLinetypeTableRecord
  2
DASHED
 70
     0
  3
__ __ __ __ __ __ __ __ __ 
 72
    65
 73
     2
 40
19.05
 49
12.7
 74
     0
 49
-6.349999999999998
 74
     0
  0
LTYPE
  5
399
330
5
100
AcDbSymbolTableRecord
100
AcDbLinetypeTableRecord
  2
PHANTOM
 70
     0
  3
_____ _ _ _____ _ _ _____ _ _ 
 72
    65
 73
     6
 40
63.5
 49
31.75
 74
     0
 49
-6.349999999999998
 74
     0
 49
6.349999999999998
 74
     0
 49
-6.349999999999998
 74
     0
 49
6.349999999999998
 74
     0
 49
-6.349999999999998
 74
     0
  0
LTYPE
  5
39A
330
5
100
AcDbSymbolTableRecord
100
AcDbLinetypeTableRecord
  2
DOT
 70
     0
  3
...........................
 72
    65
 73
     2
 40
6.349999999999998
 49
0.0
 74
     0
 49
-6.349999999999998
 74
     0
  0
LTYPE
  5
39B
330
5
100
AcDbSymbolTableRecord
100
AcDbLinetypeTableRecord
  2
DASHDOT
 70
     0
  3
__ . __ . __ . __ . __ . __ . 
 72
    65
 73
     4
 40
25.4
 49
12.7
 74
     0
 49
-6.349999999999998
 74
     0
 49
0.0
 74
     0
 49
-6.349999999999998
 74
     0
  0
LTYPE
  5
39C
330
5
100
AcDbSymbolTableRecord
100
AcDbLinetypeTableRecord
  2
DIVIDE
 70
     0
  3
__ . . __ . . __ . . __ . . 
 72
    65
 73
     6
 40
31.75
 49
12.7
 74
     0
 49
-6.349999999999998
 74
     0
 49
0.0
 74
     0
 49
-6.349999999999998
 74
     0
 49
0.0
 74
     0
 49
-6.349999999999998
 74
     0
  0
LTYPE
  5
39D
330
5
100
AcDbSymbolTableRecord
100
AcDbLinetypeTableRecord
  2
BORDER
 70
     0
  3
__ __ . __ __ . __ __ . __ __ . 
 72
    65
 73
     6
 40
44.45
 49
12.7
 74
     0
 49
-6.349999999999998
 74
     0
 49
12.7
 74
     0
 49
-6.349999999999998
 74
     0
 49
0.0
 74
     0
 49
-6.349999999999998
 74
     0
  0
LTYPE
  5
39E
330
5
100
AcDbSymbolTableRecord
100
AcDbLinetypeTableRecord
  2
BORDER2
 70
     0
  3
 
 72
    65
 73
     6
 40
22.225
 49
6.349999999999998
 74
     0
 49
-3.174999999999998
 74
     0
 49
6.349999999999998
 74
     0
 49
-3.174999999999998
 74
     0
 49
0.0
 74
     0
 49
-3.174999999999998
 74
     0
  0
LTYPE
  5
39F
330
5
100
AcDbSymbolTableRecord
100
AcDbLinetypeTableRecord
  2
BORDERX2
 70
     0
  3
 
 72
    65
 73
     6
 40
88.9
 49
25.4
 74
     0
 49
-12.7
 74
     0
 49
25.4
 74
     0
 49
-12.7
 74
     0
 49
0.0
 74
     0
 49
-12.7
 74
     0
  0
LTYPE
  5
3A0
330
5
100
AcDbSymbolTableRecord
100
AcDbLinetypeTableRecord
  2
CENTER2
 70
     0
  3
 
 72
    65
 73
     4
 40
28.575
 49
19.05
 74
     0
 49
-3.174999999999998
 74
     0
 49
3.174999999999998
 74
     0
 49
-3.174999999999998
 74
     0
  0
LTYPE
  5
3A1
330
5
100
AcDbSymbolTableRecord
100
AcDbLinetypeTableRecord
  2
CENTERX2
 70
     0
  3
 
 72
    65
 73
     4
 40
101.6
 49
63.5
 74
     0
 49
-12.7
 74
     0
 49
12.7
 74
     0
 49
-12.7
 74
     0
  0
LTYPE
  5
3A2
330
5
100
AcDbSymbolTableRecord
100
AcDbLinetypeTableRecord
  2
DASHDOT2
 70
     0
  3
 
 72
    65
 73
     4
 40
12.7
 49
6.349999999999998
 74
     0
 49
-3.174999999999998
 74
     0
 49
0.0
 74
     0
 49
-3.174999999999998
 74
     0
  0
LTYPE
  5
3A3
330
5
100
AcDbSymbolTableRecord
100
AcDbLinetypeTableRecord
  2
DASHDOTX2
 70
     0
  3
 
 72
    65
 73
     4
 40
50.8
 49
25.4
 74
     0
 49
-12.7
 74
     0
 49
0.0
 74
     0
 49
-12.7
 74
     0
  0
LTYPE
  5
3A4
330
5
100
AcDbSymbolTableRecord
100
AcDbLinetypeTableRecord
  2
DASHED2
 70
     0
  3
 
 72
    65
 73
     2
 40
9.525
 49
6.349999999999998
 74
     0
 49
-3.174999999999998
 74
     0
  0
LTYPE
  5
3A5
330
5
100
AcDbSymbolTableRecord
100
AcDbLinetypeTableRecord
  2
DASHEDX2
 70
     0
  3
 
 72
    65
 73
     2
 40
38.1
 49
25.4
 74
     0
 49
-12.7
 74
     0
  0
LTYPE
  5
3A6
330
5
100
AcDbSymbolTableRecord
100
AcDbLinetypeTableRecord
  2
DIVIDE2
 70
     0
  3
 
 72
    65
 73
     6
 40
15.875
 49
6.349999999999998
 74
     0
 49
-3.174999999999998
 74
     0
 49
0.0
 74
     0
 49
-3.174999999999998
 74
     0
 49
0.0
 74
     0
 49
-3.174999999999998
 74
     0
  0
LTYPE
  5
3A7
330
5
100
AcDbSymbolTableRecord
100
AcDbLinetypeTableRecord
  2
DIVIDEX2
 70
     0
  3
 
 72
    65
 73
     6
 40
63.5
 49
25.4
 74
     0
 49
-12.7
 74
     0
 49
0.0
 74
     0
 49
-12.7
 74
     0
 49
0.0
 74
     0
 49
-12.7
 74
     0
  0
LTYPE
  5
3A8
330
5
100
AcDbSymbolTableRecord
100
AcDbLinetypeTableRecord
  2
DOT2
 70
     0
  3
 
 72
    65
 73
     2
 40
3.174999999999998
 49
0.0
 74
     0
 49
-3.174999999999998
 74
     0
  0
LTYPE
  5
3A9
330
5
100
AcDbSymbolTableRecord
100
AcDbLinetypeTableRecord
  2
DOTX2
 70
     0
  3
 
 72
    65
 73
     2
 40
12.7
 49
0.0
 74
     0
 49
-12.7
 74
     0
  0
LTYPE
  5
3AA
330
5
100
AcDbSymbolTableRecord
100
AcDbLinetypeTableRecord
  2
HIDDEN2
 70
     0
  3
 
 72
    65
 73
     2
 40
4.7625
 49
3.174999999999998
 74
     0
 49
-1.587499999999999
 74
     0
  0
LTYPE
  5
3AB
330
5
100
AcDbSymbolTableRecord
100
AcDbLinetypeTableRecord
  2
HIDDENX2
 70
     0
  3
 
 72
    65
 73
     2
 40
19.05
 49
12.7
 74
     0
 49
-6.349999999999998
 74
     0
  0
LTYPE
  5
3AC
330
5
100
AcDbSymbolTableRecord
100
AcDbLinetypeTableRecord
  2
PHANTOM2
 70
     0
  3
 
 72
    65
 73
     6
 40
31.75
 49
15.875
 74
     0
 49
-3.174999999999998
 74
     0
 49
3.174999999999998
 74
     0
 49
-3.174999999999998
 74
     0
 49
3.174999999999998
 74
     0
 49
-3.174999999999998
 74
     0
  0
LTYPE
  5
3AD
330
5
100
AcDbSymbolTableRecord
100
AcDbLinetypeTableRecord
  2
PHANTOMX2
 70
     0
  3
 
 72
    65
 73
     6
 40
127.0
 49
63.5
 74
     0
 49
-12.7
 74
     0
 49
12.7
 74
     0
 49
-12.7
 74
     0
 49
12.7
 74
     0
 49
-12.7
 74
     0
  0
LTYPE
  5
3AE
330
5
100
AcDbSymbolTableRecord
100
AcDbLinetypeTableRecord
  2
DOTS
 70
     0
  3
 
 72
    65
 73
     2
 40
2.54
 49
1.27
 74
     0
 49
-1.27
 74
     0
  0
LTYPE
  5
3AF
330
5
100
AcDbSymbolTableRecord
100
AcDbLinetypeTableRecord
  2
ACAD_ISO02W100
 70
     0
  3
 
 72
    65
 73
     2
 40
381.0
 49
304.8
 74
     0
 49
-76.2
 74
     0
  0
LTYPE
  5
3B0
330
5
100
AcDbSymbolTableRecord
100
AcDbLinetypeTableRecord
  2
ACAD_ISO03W100
 70
     0
  3
 
 72
    65
 73
     2
 40
762.0
 49
304.8
 74
     0
 49
-457.2
 74
     0
  0
LTYPE
  5
3B1
330
5
100
AcDbSymbolTableRecord
100
AcDbLinetypeTableRecord
  2
ACAD_ISO04W100
 70
     0
  3
 
 72
    65
 73
     4
 40
774.7
 49
609.6
 74
     0
 49
-76.2
 74
     0
 49
12.7
 74
     0
 49
-76.2
 74
     0
  0
LTYPE
  5
3B2
330
5
100
AcDbSymbolTableRecord
100
AcDbLinetypeTableRecord
  2
ACAD_ISO05W100
 70
     0
  3
 
 72
    65
 73
     6
 40
863.6000000000001
 49
609.6
 74
     0
 49
-76.2
 74
     0
 49
12.7
 74
     0
 49
-76.2
 74
     0
 49
12.7
 74
     0
 49
-76.2
 74
     0
  0
LTYPE
  5
3B3
330
5
100
AcDbSymbolTableRecord
100
AcDbLinetypeTableRecord
  2
ACAD_ISO06W100
 70
     0
  3
 
 72
    65
 73
     6
 40
863.6000000000001
 49
609.6
 74
     0
 49
-76.2
 74
     0
 49
12.7
 74
     0
 49
-76.2
 74
     0
 49
12.7
 74
     0
 49
-76.2
 74
     0
  0
LTYPE
  5
3B4
330
5
100
AcDbSymbolTableRecord
100
AcDbLinetypeTableRecord
  2
ACAD_ISO07W100
 70
     0
  3
 
 72
    65
 73
     2
 40
88.9
 49
12.7
 74
     0
 49
-76.2
 74
     0
  0
LTYPE
  5
3B5
330
5
100
AcDbSymbolTableRecord
100
AcDbLinetypeTableRecord
  2
ACAD_ISO08W100
 70
     0
  3
 
 72
    65
 73
     4
 40
914.4
 49
609.6
 74
     0
 49
-76.2
 74
     0
 49
152.4
 74
     0
 49
-76.2
 74
     0
  0
LTYPE
  5
3B6
330
5
100
AcDbSymbolTableRecord
100
AcDbLinetypeTableRecord
  2
ACAD_ISO09W100
 70
     0
  3
 
 72
    65
 73
     6
 40
1143.0
 49
609.6
 74
     0
 49
-76.2
 74
     0
 49
152.4
 74
     0
 49
-76.2
 74
     0
 49
152.4
 74
     0
 49
-76.2
 74
     0
  0
LTYPE
  5
3B7
330
5
100
AcDbSymbolTableRecord
100
AcDbLinetypeTableRecord
  2
ACAD_ISO10W100
 70
     0
  3
 
 72
    65
 73
     4
 40
469.8999999999998
 49
304.8
 74
     0
 49
-76.2
 74
     0
 49
12.7
 74
     0
 49
-76.2
 74
     0
  0
LTYPE
  5
3B8
330
5
100
AcDbSymbolTableRecord
100
AcDbLinetypeTableRecord
  2
ACAD_ISO11W100
 70
     0
  3
 
 72
    65
 73
     6
 40
850.9
 49
304.8
 74
     0
 49
-76.2
 74
     0
 49
304.8
 74
     0
 49
-76.2
 74
     0
 49
12.7
 74
     0
 49
-76.2
 74
     0
  0
LTYPE
  5
3B9
330
5
100
AcDbSymbolTableRecord
100
AcDbLinetypeTableRecord
  2
ACAD_ISO12W100
 70
     0
  3
 
 72
    65
 73
     6
 40
558.8
 49
304.8
 74
     0
 49
-76.2
 74
     0
 49
12.7
 74
     0
 49
-76.2
 74
     0
 49
12.7
 74
     0
 49
-76.2
 74
     0
  0
LTYPE
  5
3BA
330
5
100
AcDbSymbolTableRecord
100
AcDbLinetypeTableRecord
  2
ACAD_ISO13W100
 70
     0
  3
 
 72
    65
 73
     6
 40
850.9
 49
304.8
 74
     0
 49
-76.2
 74
     0
 49
304.8
 74
     0
 49
-76.2
 74
     0
 49
12.7
 74
     0
 49
-76.2
 74
     0
  0
LTYPE
  5
3BB
330
5
100
AcDbSymbolTableRecord
100
AcDbLinetypeTableRecord
  2
ACAD_ISO14W100
 70
     0
  3
 
 72
    65
 73
     6
 40
558.8
 49
304.8
 74
     0
 49
-76.2
 74
     0
 49
12.7
 74
     0
 49
-76.2
 74
     0
 49
12.7
 74
     0
 49
-76.2
 74
     0
  0
LTYPE
  5
3BC
330
5
100
AcDbSymbolTableRecord
100
AcDbLinetypeTableRecord
  2
ACAD_ISO15W100
 70
     0
  3
 
 72
    65
 73
     6
 40
850.9
 49
304.8
 74
     0
 49
-76.2
 74
     0
 49
304.8
 74
     0
 49
-76.2
 74
     0
 49
12.7
 74
     0
 49
-76.2
 74
     0
  0
ENDTAB
  0
TABLE
  2
LAYER
  5
2
102
{ACAD_XDICTIONARY
360
1008
102
}
330
0
100
AcDbSymbolTable
 70
    16
  0
LAYER
  5
10
102
{ACAD_XDICTIONARY
360
109A
102
}
330
2
100
AcDbSymbolTableRecord
100
AcDbLayerTableRecord
  2
0
 70
     0
 62
     7
  6
Continuous
370
    -3
390
F
  0
LAYER
  5
61
102
{ACAD_XDICTIONARY
360
109C
102
}
330
2
100
AcDbSymbolTableRecord
100
AcDbLayerTableRecord
  2
LAYER01
 70
     0
 62
     7
  6
Continuous
370
    -3
390
F
  0
LAYER
  5
62
102
{ACAD_XDICTIONARY
360
109E
102
}
330
2
100
AcDbSymbolTableRecord
100
AcDbLayerTableRecord
  2
LAYER04
 70
     0
 62
     7
  6
Continuous
370
    -3
390
F
  0
LAYER
  5
300
330
2
100
AcDbSymbolTableRecord
100
AcDbLayerTableRecord
  2
Defpoints
 70
     0
 62
     7
  6
Continuous
290
     0
370
    -3
390
F
  0
LAYER
  5
3BD
102
{ACAD_XDICTIONARY
360
10A0
102
}
330
2
100
AcDbSymbolTableRecord
100
AcDbLayerTableRecord
  2
1
 70
     0
 62
     7
  6
Continuous
370
    -3
390
F
  0
LAYER
  5
3BE
102
{ACAD_XDICTIONARY
360
10A2
102
}
330
2
100
AcDbSymbolTableRecord
100
AcDbLayerTableRecord
  2
レイヤー_1
 70
     0
 62
   160
  6
Continuous
370
    -3
390
F
  0
LAYER
  5
3BF
102
{ACAD_XDICTIONARY
360
10A4
102
}
330
2
100
AcDbSymbolTableRecord
100
AcDbLayerTableRecord
  2
2
 70
     0
 62
     6
  6
DASHED
370
    15
390
F
  0
LAYER
  5
3C0
102
{ACAD_XDICTIONARY
360
10A6
102
}
330
2
100
AcDbSymbolTableRecord
100
AcDbLayerTableRecord
  2
4
 70
     0
 62
     1
  6
Continuous
370
     9
390
F
  0
LAYER
  5
3C1
102
{ACAD_XDICTIONARY
360
10A8
102
}
330
2
100
AcDbSymbolTableRecord
100
AcDbLayerTableRecord
  2
3
 70
     0
 62
     5
  6
Continuous
370
     9
390
F
  0
LAYER
  5
3C2
102
{ACAD_XDICTIONARY
360
10AA
102
}
330
2
100
AcDbSymbolTableRecord
100
AcDbLayerTableRecord
  2
5
 70
     0
 62
     5
  6
CENTER
370
    -3
390
F
  0
LAYER
  5
112F
102
{ACAD_XDICTIONARY
360
1130
102
}
330
2
100
AcDbSymbolTableRecord
100
AcDbLayerTableRecord
  2
Z_OM_OUTLINE
 70
     0
 62
     7
  6
Continuous
370
    -3
390
F
  0
LAYER
  5
1133
102
{ACAD_XDICTIONARY
360
1134
102
}
330
2
100
AcDbSymbolTableRecord
100
AcDbLayerTableRecord
  2
Z_OM_NOTE
 70
     0
 62
     4
  6
Continuous
370
    -3
390
F
  0
LAYER
  5
1136
102
{ACAD_XDICTIONARY
360
1137
102
}
330
2
100
AcDbSymbolTableRecord
100
AcDbLayerTableRecord
  2
Z_OM_CENTER
 70
     0
 62
     2
  6
CENTER
370
    -3
390
F
  0
LAYER
  5
113A
102
{ACAD_XDICTIONARY
360
113B
102
}
330
2
100
AcDbSymbolTableRecord
100
AcDbLayerTableRecord
  2
Z_OM_DIM
 70
     0
 62
     4
  6
Continuous
370
    -3
390
F
  0
LAYER
  5
3530
330
2
100
AcDbSymbolTableRecord
100
AcDbLayerTableRecord
  2
銘板
 70
     0
 62
   210
  6
Continuous
370
    -3
390
F
1001
AcAecLayerStandard
1000

1000

1001
AcCmTransparency
1071
        0
  0
LAYER
  5
3534
330
2
100
AcDbSymbolTableRecord
100
AcDbLayerTableRecord
  2
ハーネス
 70
     0
 62
    40
  6
Continuous
370
    -3
390
F
1001
AcAecLayerStandard
1000

1000

1001
AcCmTransparency
1071
        0
  0
ENDTAB
  0
TABLE
  2
STYLE
  5
3
330
0
100
AcDbSymbolTable
 70
     8
  0
STYLE
  5
11
330
3
100
AcDbSymbolTableRecord
100
AcDbTextStyleTableRecord
  2
Standard
 70
     0
 40
0.0
 41
1.0
 50
0.0
 71
     0
 42
2.5
  3
txt
  4

  0
STYLE
  5
63
330
3
100
AcDbSymbolTableRecord
100
AcDbTextStyleTableRecord
  2
ＭＳゴシック
 70
     0
 40
0.0
 41
1.0
 50
0.0
 71
     0
 42
10.49095405425059
  3
msgothic.ttc
  4

1001
ACAD
1000
MS Gothic
1071
    32768
  0
STYLE
  5
3C3
330
3
100
AcDbSymbolTableRecord
100
AcDbTextStyleTableRecord
  2
ITALIC
 70
     0
 40
0.0
 41
1.0
 50
0.0
 71
     0
 42
0.0
  3
ITALIC
  4

  0
STYLE
  5
3C4
330
3
100
AcDbSymbolTableRecord
100
AcDbTextStyleTableRecord
  2
SIMPLEX
 70
     0
 40
0.0
 41
1.0
 50
0.0
 71
     0
 42
0.0
  3
SIMPLEX
  4

  0
STYLE
  5
3C5
330
3
100
AcDbSymbolTableRecord
100
AcDbTextStyleTableRecord
  2
COMPLEX
 70
     0
 40
0.0
 41
1.0
 50
0.0
 71
     0
 42
0.0
  3
COMPLEX
  4

  0
STYLE
  5
3C6
330
3
100
AcDbSymbolTableRecord
100
AcDbTextStyleTableRecord
  2
EXTFONT
 70
     0
 40
0.0
 41
1.0
 50
0.0
 71
     0
 42
0.0
  3
txt.shx
  4
extfont
  0
STYLE
  5
3C7
330
3
100
AcDbSymbolTableRecord
100
AcDbTextStyleTableRecord
  2
BIGFONT
 70
     0
 40
0.0
 41
1.0
 50
0.0
 71
     0
 42
0.0
  3
txt.shx
  4
bigfont
  0
STYLE
  5
558
330
3
100
AcDbSymbolTableRecord
100
AcDbTextStyleTableRecord
  2
STANDARD_BIGFONT
 70
     0
 40
0.0
 41
1.0
 50
0.0
 71
     0
 42
0.0
  3
txt
  4
BIGFONT
  0
ENDTAB
  0
TABLE
  2
VIEW
  5
6
330
0
100
AcDbSymbolTable
 70
     0
  0
ENDTAB
  0
TABLE
  2
UCS
  5
7
330
0
100
AcDbSymbolTable
 70
     0
  0
ENDTAB
  0
TABLE
  2
APPID
  5
9
330
0
100
AcDbSymbolTable
 70
     9
  0
APPID
  5
12
330
9
100
AcDbSymbolTableRecord
100
AcDbRegAppTableRecord
  2
ACAD
 70
     0
  0
APPID
  5
10B4
330
9
100
AcDbSymbolTableRecord
100
AcDbRegAppTableRecord
  2
ACAD_EXEMPT_FROM_CAD_STANDARDS
 70
     0
  0
APPID
  5
10B6
330
9
100
AcDbSymbolTableRecord
100
AcDbRegAppTableRecord
  2
ACAD_NAV_VCDISPLAY
 70
     0
  0
APPID
  5
1145
330
9
100
AcDbSymbolTableRecord
100
AcDbRegAppTableRecord
  2
ACAD_DSTYLE_DIMINSPECT
 70
     0
  0
APPID
  5
16EF
330
9
100
AcDbSymbolTableRecord
100
AcDbRegAppTableRecord
  2
ACAD_DSTYLE_DIMRADIAL_EXTENSION
 70
     0
  0
APPID
  5
276D
330
9
100
AcDbSymbolTableRecord
100
AcDbRegAppTableRecord
  2
ACAD_PSEXT
 70
     0
  0
APPID
  5
3532
330
9
100
AcDbSymbolTableRecord
100
AcDbRegAppTableRecord
  2
AcAecLayerStandard
 70
     0
  0
APPID
  5
3533
330
9
100
AcDbSymbolTableRecord
100
AcDbRegAppTableRecord
  2
AcCmTransparency
 70
     0
  0
APPID
  5
37F4
330
9
100
AcDbSymbolTableRecord
100
AcDbRegAppTableRecord
  2
ACAD_MLEADERVER
 70
     0
  0
ENDTAB
  0
TABLE
  2
DIMSTYLE
  5
A
330
0
100
AcDbSymbolTable
 70
     3
100
AcDbDimStyleTable
 71
     0
  0
DIMSTYLE
105
27
102
{ACAD_REACTORS
330
29B4
330
29C9
330
2B62
330
2B63
330
2B66
330
2B67
330
2B69
330
34F7
330
35E0
330
35F9
330
3701
102
}
330
A
100
AcDbSymbolTableRecord
100
AcDbDimStyleTableRecord
  2
ISO-25
 70
     0
 41
2.5
 42
0.625
 43
3.75
 44
1.25
 73
     0
 74
     0
 77
     1
 78
     8
140
2.5
141
2.5
143
0.03937007874016
147
0.625
171
     3
172
     1
271
     2
272
     2
274
     3
278
    44
283
     0
284
     8
340
11
  0
DIMSTYLE
105
64
330
A
100
AcDbSymbolTableRecord
100
AcDbDimStyleTableRecord
  2
STANDARD
 70
     0
340
11
  0
DIMSTYLE
105
3C8
330
A
100
AcDbSymbolTableRecord
100
AcDbDimStyleTableRecord
  2
STANDARD_WS
 70
     0
 41
2.5
 42
0.625
 43
3.75
 44
1.25
 73
     0
 74
     0
 77
     1
 78
     8
140
2.5
141
2.5
143
0.0394
147
0.625
171
     4
172
     1
273
     8
274
     4
340
11
  0
ENDTAB
  0
TABLE
  2
BLOCK_RECORD
  5
1
330
0
100
AcDbSymbolTable
 70
    13
  0
BLOCK_RECORD
  5
1F
330
1
100
AcDbSymbolTableRecord
100
AcDbBlockTableRecord
  2
*Model_Space
340
22
  0
BLOCK_RECORD
  5
50
330
1
100
AcDbSymbolTableRecord
100
AcDbBlockTableRecord
  2
*Paper_Space
340
51
  0
BLOCK_RECORD
  5
55
330
1
100
AcDbSymbolTableRecord
100
AcDbBlockTableRecord
  2
*Paper_Space0
340
56
  0
BLOCK_RECORD
  5
20C
330
1
100
AcDbSymbolTableRecord
100
AcDbBlockTableRecord
  2
OPENARROW
340
0
  0
BLOCK_RECORD
  5
383
330
1
100
AcDbSymbolTableRecord
100
AcDbBlockTableRecord
  2
AI9-BLK1
340
0
102
{BLKREFS
331
3E9
102
}
  0
BLOCK_RECORD
  5
388
330
1
100
AcDbSymbolTableRecord
100
AcDbBlockTableRecord
  2
AI9-BLK2
340
0
102
{BLKREFS
331
385
102
}
  0
BLOCK_RECORD
  5
391
330
1
100
AcDbSymbolTableRecord
100
AcDbBlockTableRecord
  2
_Open30
340
0
  0
BLOCK_RECORD
  5
3CB
330
1
100
AcDbSymbolTableRecord
100
AcDbBlockTableRecord
  2
A4ﾜｸﾖｺ
340
0
  0
BLOCK_RECORD
  5
552
330
1
100
AcDbSymbolTableRecord
100
AcDbBlockTableRecord
  2
_Open
340
0
  0
BLOCK_RECORD
  5
2B6B
330
1
100
AcDbSymbolTableRecord
100
AcDbBlockTableRecord
  2
*D7
340
0
  0
BLOCK_RECORD
  5
2B77
330
1
100
AcDbSymbolTableRecord
100
AcDbBlockTableRecord
  2
*D8
340
0
  0
BLOCK_RECORD
  5
34F8
330
1
100
AcDbSymbolTableRecord
100
AcDbBlockTableRecord
  2
*D9
340
0
  0
BLOCK_RECORD
  5
35E1
330
1
100
AcDbSymbolTableRecord
100
AcDbBlockTableRecord
  2
*D10
340
0
  0
BLOCK_RECORD
  5
35FA
330
1
100
AcDbSymbolTableRecord
100
AcDbBlockTableRecord
  2
*D11
340
0
  0
BLOCK_RECORD
  5
3702
330
1
100
AcDbSymbolTableRecord
100
AcDbBlockTableRecord
  2
*D12
340
0
  0
ENDTAB
  0
ENDSEC
  0
SECTION
  2
BLOCKS
  0
BLOCK
  5
20
330
1F
100
AcDbEntity
  8
0
100
AcDbBlockBegin
  2
*Model_Space
 70
     0
 10
0.0
 20
0.0
 30
0.0
  3
*Model_Space
  1

  0
ENDBLK
  5
21
330
1F
100
AcDbEntity
  8
0
100
AcDbBlockEnd
  0
BLOCK
  5
52
330
50
100
AcDbEntity
 67
     1
  8
0
100
AcDbBlockBegin
  2
*Paper_Space
 70
     0
 10
0.0
 20
0.0
 30
0.0
  3
*Paper_Space
  1

  0
ENDBLK
  5
53
330
50
100
AcDbEntity
 67
     1
  8
0
100
AcDbBlockEnd
  0
BLOCK
  5
57
330
55
100
AcDbEntity
 67
     1
  8
0
100
AcDbBlockBegin
  2
*Paper_Space0
 70
     0
 10
0.0
 20
0.0
 30
0.0
  3
*Paper_Space0
  1

  0
ENDBLK
  5
58
330
55
100
AcDbEntity
 67
     1
  8
0
100
AcDbBlockEnd
  0
BLOCK
  5
20F
330
20C
100
AcDbEntity
  8
0
100
AcDbBlockBegin
  2
OPENARROW
 70
     0
 10
0.0
 20
0.0
 30
0.0
  3
OPENARROW
  1

  0
LINE
  5
20D
330
20C
100
AcDbEntity
  8
LAYER01
  6
Continuous
 62
     7
100
AcDbLine
 10
0.0
 20
0.0
 30
0.0
 11
50.8
 21
12.7
 31
0.0
  0
LINE
  5
20E
330
20C
100
AcDbEntity
  8
LAYER01
  6
Continuous
 62
     7
100
AcDbLine
 10
0.0
 20
0.0
 30
0.0
 11
50.8
 21
-12.7
 31
0.0
  0
ENDBLK
  5
210
330
20C
100
AcDbEntity
  8
0
100
AcDbBlockEnd
  0
BLOCK
  5
386
330
383
100
AcDbEntity
  8
レイヤー_1
 62
     7
100
AcDbBlockBegin
  2
AI9-BLK1
 70
     0
 10
0.0
 20
0.0
 30
0.0
  3
AI9-BLK1
  1

  0
HATCH
  5
384
330
383
100
AcDbEntity
  8
レイヤー_1
 62
     1
100
AcDbHatch
 10
0.0
 20
0.0
 30
0.0
210
0.0
220
0.0
230
1.0
  2
SOLID
 70
     1
 71
     0
 91
        2
 92
       16
 93
        1
 72
     4
 94
        3
 73
     0
 74
     0
 95
       14
 96
       10
 40
0.0
 40
0.0
 40
0.0
 40
0.0
 40
1.0
 40
1.0
 40
1.0
 40
2.0
 40
2.0
 40
2.0
 40
3.0
 40
3.0
 40
3.0
 40
3.0
 10
-5.553149414062498
 20
-0.5691297743055556
 10
-5.553149414062498
 20
-0.5691297743055556
 10
-5.946579318576387
 20
1.19751519097222
 10
-5.946579318576387
 20
1.19751519097222
 10
-5.946579318576387
 20
1.19751519097222
 10
-6.524666341145832
 20
-0.8598958333333332
 10
-6.524666341145832
 20
-0.8598958333333332
 10
-6.524666341145832
 20
-0.8598958333333332
 10
-5.553149414062498
 20
-0.5691297743055556
 10
-5.553149414062498
 20
-0.5691297743055556
 97
        0
 92
        1
 93
        1
 72
     4
 94
        3
 73
     0
 74
     0
 95
       95
 96
       91
 40
0.0
 40
0.0
 40
0.0
 40
0.0
 40
1.0
 40
1.0
 40
1.0
 40
2.0
 40
2.0
 40
2.0
 40
3.0
 40
3.0
 40
3.0
 40
4.0
 40
4.0
 40
4.0
 40
5.0
 40
5.0
 40
5.0
 40
6.0
 40
6.0
 40
6.0
 40
7.0
 40
7.0
 40
7.0
 40
8.0
 40
8.0
 40
8.0
 40
9.0
 40
9.0
 40
9.0
 40
10.0
 40
10.0
 40
10.0
 40
11.0
 40
11.0
 40
11.0
 40
12.0
 40
12.0
 40
12.0
 40
13.0
 40
13.0
 40
13.0
 40
14.0
 40
14.0
 40
14.0
 40
15.0
 40
15.0
 40
15.0
 40
16.0
 40
16.0
 40
16.0
 40
17.0
 40
17.0
 40
17.0
 40
18.0
 40
18.0
 40
18.0
 40
19.0
 40
19.0
 40
19.0
 40
20.0
 40
20.0
 40
20.0
 40
21.0
 40
21.0
 40
21.0
 40
22.0
 40
22.0
 40
22.0
 40
23.0
 40
23.0
 40
23.0
 40
24.0
 40
24.0
 40
24.0
 40
25.0
 40
25.0
 40
25.0
 40
26.0
 40
26.0
 40
26.0
 40
27.0
 40
27.0
 40
27.0
 40
28.0
 40
28.0
 40
28.0
 40
29.0
 40
29.0
 40
29.0
 40
30.0
 40
30.0
 40
30.0
 40
30.0
 10
-0.7761800130208333
 20
-2.40949978298611
 10
-1.432126193576388
 20
-2.946934678819443
 10
-2.200382486979166
 20
-3.359657118055555
 10
-3.079570855034721
 20
-3.647667100694443
 10
-3.958759223090276
 20
-3.935677083333331
 10
-4.888245985243056
 20
-4.078993055555555
 10
-5.868031141493053
 20
-4.078993055555555
 10
-7.503762478298607
 20
-4.078993055555555
 10
-8.849416775173608
 20
-3.706922743055555
 10
-9.906372070312498
 20
-2.962782118055555
 10
-10.96332736545138
 20
-2.218641493055555
 10
-11.49180501302083
 20
-1.263661024305554
 10
-11.49180501302083
 20
-0.0985297309027778
 10
-11.49180501302083
 20
1.050754123263887
 10
-10.96401638454861
 20
2.034673394097221
 10
-9.907061089409721
 20
2.8525390625
 10
-8.850794813368054
 20
3.669715711805555
 10
-7.578176540798607
 20
4.078993055555555
 10
-6.089206271701387
 20
4.078993055555555
 10
-5.055677625868056
 20
4.078993055555555
 10
-4.213696289062498
 20
3.850238715277776
 10
-3.561884223090276
 20
3.39273003472222
 10
-2.910072157118055
 20
2.935221354166666
 10
-2.584166124131944
 20
2.344731987847221
 10
-2.584166124131944
 20
1.62195095486111
 10
-2.584166124131944
 20
1.229210069444444
 10
-2.745396592881943
 20
0.8447374131944444
 10
-3.066479492187498
 20
0.467843967013889
 10
-3.387562391493055
 20
0.0909505208333333
 10
-3.877454969618055
 20
-0.2859429253472222
 10
-4.535468207465277
 20
-0.6621473524305555
 10
-4.535468207465277
 20
-0.6621473524305555
 10
-3.887790256076388
 20
-2.183501519097221
 10
-3.887790256076388
 20
-2.183501519097221
 10
-3.887790256076388
 20
-2.183501519097221
 10
-5.241023763020831
 20
-2.445328776041665
 10
-5.241023763020831
 20
-2.445328776041665
 10
-5.241023763020831
 20
-2.445328776041665
 10
-5.553149414062498
 20
-0.9260416666666664
 10
-5.553149414062498
 20
-0.9260416666666664
 10
-5.553149414062498
 20
-0.9260416666666664
 10
-6.570830620659721
 20
-1.124479166666666
 10
-6.570830620659721
 20
-1.124479166666666
 10
-6.570830620659721
 20
-1.124479166666666
 10
-6.871931966145832
 20
-2.623784722222221
 10
-6.871931966145832
 20
-2.623784722222221
 10
-6.871931966145832
 20
-2.623784722222221
 10
-8.085983615451386
 20
-2.48115776909722
 10
-8.085983615451386
 20
-2.48115776909722
 10
-8.085983615451386
 20
-2.48115776909722
 10
-6.050621202256943
 20
3.41753472222222
 10
-6.050621202256943
 20
3.41753472222222
 10
-6.050621202256943
 20
3.41753472222222
 10
-5.900415039062498
 20
3.439583333333331
 10
-5.900415039062498
 20
3.439583333333331
 10
-5.900415039062498
 20
3.439583333333331
 10
-4.628485785590277
 20
-0.18603515625
 10
-4.628485785590277
 20
-0.18603515625
 10
-4.119989691840276
 20
0.0916395399305555
 10
-3.740340169270831
 20
0.3872287326388889
 10
-3.489537217881943
 20
0.7000434027777778
 10
-3.238734266493055
 20
1.012858072916665
 10
-3.113332790798609
 20
1.34634331597222
 10
-3.113332790798609
 20
1.701877170138887
 10
-3.113332790798609
 20
2.288232421875
 10
-3.387562391493055
 20
2.765033637152776
 10
-3.934643554687498
 20
3.131591796875
 10
-4.481724717881943
 20
3.498149956597221
 10
-5.194859483506943
 20
3.682118055555555
 10
-6.074047851562498
 20
3.682118055555555
 10
-7.246069335937498
 20
3.682118055555555
 10
-8.265817599826387
 20
3.333474392361109
 10
-9.132603624131942
 20
2.636876085069443
 10
-10.00007866753472
 20
1.940277777777776
 10
-10.4334716796875
 20
1.1162109375
 10
-10.4334716796875
 20
0.1646755642361111
 10
-10.4334716796875
 20
-0.787548828125
 10
-10.02763943142361
 20
-1.570963541666666
 10
-9.21528591579861
 20
-2.18625759548611
 10
-8.403621419270832
 20
-2.801551649305555
 10
-7.381806098090276
 20
-3.108854166666666
 10
-6.149839952256941
 20
-3.108854166666666
 10
-5.295456271701387
 20
-3.108854166666666
 10
-4.506529405381943
 20
-2.996544053819443
 10
-3.783059353298609
 20
-2.770545789930555
 10
-3.059589301215276
 20
-2.545236545138887
 10
-2.44360622829861
 20
-2.218641493055555
 10
-1.93511013454861
 20
-1.790760633680554
 10
-1.93511013454861
 20
-1.790760633680554
 10
-0.7761800130208333
 20
-2.40949978298611
 10
-0.7761800130208333
 20
-2.40949978298611
 97
        0
 75
     0
 76
     1
 98
        1
 10
0.0
 20
0.0
  0
INSERT
  5
385
330
383
100
AcDbEntity
  8
レイヤー_1
 62
     7
100
AcDbBlockReference
  2
AI9-BLK2
 10
4.211973999999998
 20
0.155029
 30
0.0
  0
ENDBLK
  5
387
330
383
100
AcDbEntity
  8
レイヤー_1
100
AcDbBlockEnd
  0
BLOCK
  5
38F
330
388
100
AcDbEntity
  8
レイヤー_1
 62
     7
100
AcDbBlockBegin
  2
AI9-BLK2
 70
     0
 10
0.0
 20
0.0
 30
0.0
  3
AI9-BLK2
  1

  0
HATCH
  5
389
330
388
100
AcDbEntity
  8
レイヤー_1
 62
     7
100
AcDbHatch
 10
0.0
 20
0.0
 30
0.0
210
0.0
220
0.0
230
1.0
  2
SOLID
 70
     1
 71
     0
 91
        1
 92
        1
 93
        1
 72
     4
 94
        3
 73
     0
 74
     0
 95
       95
 96
       91
 40
0.0
 40
0.0
 40
0.0
 40
0.0
 40
1.0
 40
1.0
 40
1.0
 40
2.0
 40
2.0
 40
2.0
 40
3.0
 40
3.0
 40
3.0
 40
4.0
 40
4.0
 40
4.0
 40
5.0
 40
5.0
 40
5.0
 40
6.0
 40
6.0
 40
6.0
 40
7.0
 40
7.0
 40
7.0
 40
8.0
 40
8.0
 40
8.0
 40
9.0
 40
9.0
 40
9.0
 40
10.0
 40
10.0
 40
10.0
 40
11.0
 40
11.0
 40
11.0
 40
12.0
 40
12.0
 40
12.0
 40
13.0
 40
13.0
 40
13.0
 40
14.0
 40
14.0
 40
14.0
 40
15.0
 40
15.0
 40
15.0
 40
16.0
 40
16.0
 40
16.0
 40
17.0
 40
17.0
 40
17.0
 40
18.0
 40
18.0
 40
18.0
 40
19.0
 40
19.0
 40
19.0
 40
20.0
 40
20.0
 40
20.0
 40
21.0
 40
21.0
 40
21.0
 40
22.0
 40
22.0
 40
22.0
 40
23.0
 40
23.0
 40
23.0
 40
24.0
 40
24.0
 40
24.0
 40
25.0
 40
25.0
 40
25.0
 40
26.0
 40
26.0
 40
26.0
 40
27.0
 40
27.0
 40
27.0
 40
28.0
 40
28.0
 40
28.0
 40
29.0
 40
29.0
 40
29.0
 40
30.0
 40
30.0
 40
30.0
 40
30.0
 10
-3.855406358506943
 20
0.2601047092013888
 10
-3.96633843315972
 20
0.1491726345486111
 10
-4.076925998263888
 20
0.0399631076388889
 10
-4.187513563368056
 20
-0.0675238715277778
 10
-4.31636013454861
 20
-0.1963704427083333
 10
-4.432459852430554
 20
-0.3252170138888889
 10
-4.536157226562498
 20
-0.4540635850694444
 10
-4.671893988715277
 20
-0.6290744357638891
 10
-4.822100151909721
 20
-0.7634331597222223
 10
-4.986431206597221
 20
-0.8571397569444442
 10
-5.133192274305554
 20
-0.9322428385416666
 10
-5.272374131944443
 20
-0.9701388888888887
 10
-5.40466579861111
 20
-0.9701388888888887
 10
-5.511808268229166
 20
-0.9701388888888887
 10
-5.597591145833332
 20
-0.9432671440972219
 10
-5.66201443142361
 20
-0.8895236545138887
 10
-5.726437717013887
 20
-0.8357801649305555
 10
-5.758477105034722
 20
-0.7548204210069444
 10
-5.758477105034722
 20
-0.6473334418402778
 10
-5.758477105034722
 20
-0.4823133680555556
 10
-5.632731119791665
 20
-0.2390896267361111
 10
-5.380894639756943
 20
0.0819932725694444
 10
-5.129402669270833
 20
0.403076171875
 10
-5.003312174479166
 20
0.6245958116319446
 10
-5.003312174479166
 20
0.7465521918402777
 10
-5.003312174479166
 20
0.8109754774305555
 10
-5.033629014756943
 20
0.843359375
 10
-5.094607204861111
 20
0.843359375
 10
-5.227243381076387
 20
0.843359375
 10
-5.402254231770832
 20
0.7048665364583333
 10
-5.620673285590277
 20
0.427880859375
 10
-5.763989257812498
 20
0.2442572699652778
 10
-5.950024414062498
 20
-0.031005859375
 10
-6.179123263888887
 20
-0.3979085286458333
 10
-6.386862521701386
 20
-0.7362169053819444
 10
-6.512263997395832
 20
-0.9270751953125
 10
-6.554983181423607
 20
-0.9701388888888887
 10
-6.554983181423607
 20
-0.9701388888888887
 10
-7.279831271701388
 20
-0.9701388888888887
 10
-7.279831271701388
 20
-0.9701388888888887
 10
-7.050732421874998
 20
-0.6318305121527778
 10
-6.82163357204861
 20
-0.2921440972222222
 10
-6.592879231770832
 20
0.049609375
 10
-6.299357096354166
 20
0.495404730902778
 10
-6.118834092881941
 20
0.7978841145833333
 10
-6.050621202256943
 20
0.9560139973958332
 10
-6.050621202256943
 20
0.9560139973958332
 10
-6.002389865451386
 20
1.069357638888887
 10
-6.002389865451386
 20
1.069357638888887
 10
-6.002389865451386
 20
1.069357638888887
 10
-5.347477213541666
 20
1.069357638888887
 10
-5.347477213541666
 20
1.069357638888887
 10
-5.344032118055555
 20
1.058333333333332
 10
-5.342309570312498
 20
1.038007269965276
 10
-5.342309570312498
 20
1.008723958333332
 10
-5.342309570312498
 20
0.9608371310763887
 10
-5.347477213541666
 20
0.9167399088541666
 10
-5.358157009548608
 20
0.8764322916666666
 10
-5.358157009548608
 20
0.8688530815972221
 10
-5.363669162326387
 20
0.8578287760416666
 10
-5.374348958333332
 20
0.843359375
 10
-5.295456271701387
 20
0.9225965711805555
 10
-5.208639865451387
 20
0.9825412326388887
 10
-5.113555230034721
 20
1.023882378472222
 10
-5.018815104166664
 20
1.065223524305555
 10
-4.926486545138887
 20
1.085894097222222
 10
-4.8369140625
 20
1.085894097222222
 10
-4.708067491319443
 20
1.085894097222222
 10
-4.598857964409721
 20
1.052821180555555
 10
-4.509285481770833
 20
0.9866753472222221
 10
-4.419712999131943
 20
0.9205295138888887
 10
-4.374926757812498
 20
0.8337131076388889
 10
-4.374926757812498
 20
0.7262261284722223
 10
-4.374926757812498
 20
0.5725748697916666
 10
-4.504462348090277
 20
0.3231499565972222
 10
-4.763533528645831
 20
-0.0220486111111111
 10
-5.022604709201387
 20
-0.3672471788194444
 10
-5.152140299479166
 20
-0.5791205512152777
 10
-5.152140299479166
 20
-0.6580132378472224
 10
-5.152140299479166
 20
-0.7041775173611109
 10
-5.129058159722221
 20
-0.7276041666666666
 10
-5.082549370659721
 20
-0.7276041666666666
 10
-5.000211588541665
 20
-0.7276041666666666
 10
-4.792127821180554
 20
-0.5601725260416666
 10
-4.458298068576387
 20
-0.2256537543402778
 10
-4.124123806423609
 20
0.1088650173611111
 10
-3.930509440104166
 20
0.2762966579861111
 10
-3.876765950520832
 20
0.2762966579861111
 10
-3.876765950520832
 20
0.2762966579861111
 10
-3.855406358506943
 20
0.2601047092013888
 10
-3.855406358506943
 20
0.2601047092013888
 97
        0
 75
     0
 76
     1
 98
        1
 10
0.0
 20
0.0
  0
HATCH
  5
38A
330
388
100
AcDbEntity
  8
レイヤー_1
 62
     7
100
AcDbHatch
 10
0.0
 20
0.0
 30
0.0
210
0.0
220
0.0
230
1.0
  2
SOLID
 70
     1
 71
     0
 91
        1
 92
        1
 93
        1
 72
     4
 94
        3
 73
     0
 74
     0
 95
       95
 96
       91
 40
0.0
 40
0.0
 40
0.0
 40
0.0
 40
1.0
 40
1.0
 40
1.0
 40
2.0
 40
2.0
 40
2.0
 40
3.0
 40
3.0
 40
3.0
 40
4.0
 40
4.0
 40
4.0
 40
5.0
 40
5.0
 40
5.0
 40
6.0
 40
6.0
 40
6.0
 40
7.0
 40
7.0
 40
7.0
 40
8.0
 40
8.0
 40
8.0
 40
9.0
 40
9.0
 40
9.0
 40
10.0
 40
10.0
 40
10.0
 40
11.0
 40
11.0
 40
11.0
 40
12.0
 40
12.0
 40
12.0
 40
13.0
 40
13.0
 40
13.0
 40
14.0
 40
14.0
 40
14.0
 40
15.0
 40
15.0
 40
15.0
 40
16.0
 40
16.0
 40
16.0
 40
17.0
 40
17.0
 40
17.0
 40
18.0
 40
18.0
 40
18.0
 40
19.0
 40
19.0
 40
19.0
 40
20.0
 40
20.0
 40
20.0
 40
21.0
 40
21.0
 40
21.0
 40
22.0
 40
22.0
 40
22.0
 40
23.0
 40
23.0
 40
23.0
 40
24.0
 40
24.0
 40
24.0
 40
25.0
 40
25.0
 40
25.0
 40
26.0
 40
26.0
 40
26.0
 40
27.0
 40
27.0
 40
27.0
 40
28.0
 40
28.0
 40
28.0
 40
29.0
 40
29.0
 40
29.0
 40
30.0
 40
30.0
 40
30.0
 40
30.0
 10
-1.603002929687499
 20
1.069357638888887
 10
-1.603002929687499
 20
1.069357638888887
 10
-2.730238172743055
 20
-0.6807508680555557
 10
-2.730238172743055
 20
-0.6807508680555557
 10
-2.966227213541666
 20
-1.04248589409722
 10
-3.225987413194443
 20
-1.366324869791665
 10
-3.508485243055555
 20
-1.6526123046875
 10
-3.887790256076388
 20
-2.039152018229165
 10
-4.202671983506943
 20
-2.232421875
 10
-4.453130425347221
 20
-2.232421875
 10
-4.635720486111111
 20
-2.232421875
 10
-4.801085069444443
 20
-2.184190538194444
 10
-4.949568684895831
 20
-2.088416883680555
 10
-5.098052300347221
 20
-1.992643229166666
 10
-5.172466362847221
 20
-1.887567816840276
 10
-5.172466362847221
 20
-1.77387966579861
 10
-5.172466362847221
 20
-1.720480685763888
 10
-5.157307942708333
 20
-1.675349934895833
 10
-5.126991102430555
 20
-1.637798394097221
 10
-5.096674262152776
 20
-1.60059136284722
 10
-5.05119900173611
 20
-1.581987847222221
 10
-4.990565321180554
 20
-1.581987847222221
 10
-4.940611436631943
 20
-1.581987847222221
 10
-4.898925781249999
 20
-1.595423719618055
 10
-4.864819335937498
 20
-1.62195095486111
 10
-4.831057400173611
 20
-1.648822699652776
 10
-4.814176432291665
 20
-1.683273654513888
 10
-4.814176432291665
 20
-1.725992838541666
 10
-4.814176432291665
 20
-1.751142035590276
 10
-4.823133680555554
 20
-1.775946723090276
 10
-4.841737196180556
 20
-1.801095920138888
 10
-4.859996202256943
 20
-1.825900607638887
 10
-4.869297960069443
 20
-1.850705295138888
 10
-4.869297960069443
 20
-1.875509982638888
 10
-4.869297960069443
 20
-1.929253472222221
 10
-4.845871310763887
 20
-1.978862847222221
 10
-4.799362521701387
 20
-2.02502712673611
 10
-4.752509223090277
 20
-2.07153591579861
 10
-4.6880859375
 20
-2.094618055555554
 10
-4.605748155381943
 20
-2.094618055555554
 10
-4.372515190972221
 20
-2.094618055555554
 10
-4.1144775390625
 20
-1.891012912326388
 10
-3.831290690104166
 20
-1.484147135416665
 10
-3.712779405381943
 20
-1.30569118923611
 10
-3.592890082465276
 20
-1.132402886284721
 10
-3.470933702256943
 20
-0.9646267361111108
 10
-3.481613498263888
 20
-0.9680718315972219
 10
-3.492293294270831
 20
-0.9718614366319442
 10
-3.503317599826389
 20
-0.9756510416666666
 10
-3.571530490451388
 20
-1.008723958333332
 10
-3.659380425347221
 20
-1.025260416666665
 10
-3.766867404513889
 20
-1.025260416666665
 10
-3.939122178819443
 20
-1.025260416666665
 10
-4.085883246527776
 20
-0.9949435763888887
 10
-4.20783962673611
 20
-0.9339653862847219
 10
-4.362179904513888
 20
-0.8481825086805553
 10
-4.439350043402777
 20
-0.7227810329861111
 10
-4.439350043402777
 20
-0.55810546875
 10
-4.439350043402777
 20
-0.4361490885416666
 10
-4.418679470486111
 20
-0.3262505425347222
 10
-4.377338324652776
 20
-0.2277208116319444
 10
-4.336341688368055
 20
-0.1291910807291667
 10
-4.245735677083333
 20
0.0254937065972222
 10
-4.10586480034722
 20
0.2370225694444444
 10
-3.91982964409722
 20
0.5126302083333333
 10
-3.731727430555555
 20
0.7899603949652777
 10
-3.54155815972222
 20
1.069357638888887
 10
-3.54155815972222
 20
1.069357638888887
 10
-2.950379774305555
 20
1.069357638888887
 10
-2.950379774305555
 20
1.069357638888887
 10
-3.183957248263888
 20
0.7186469184027777
 10
-3.366891818576388
 20
0.4413167317708333
 10
-3.499872504340276
 20
0.2373670789930555
 10
-3.755154079861111
 20
-0.1491726345486111
 10
-3.882622612847221
 20
-0.4265028211805557
 10
-3.882622612847221
 20
-0.5946234809027777
 10
-3.882622612847221
 20
-0.7200249565972224
 10
-3.823366970486111
 20
-0.7827256944444444
 10
-3.7052001953125
 20
-0.7827256944444444
 10
-3.583243815104166
 20
-0.7827256944444444
 10
-3.429248046875
 20
-0.6714491102430557
 10
-3.242868381076388
 20
-0.448895941840278
 10
-3.117466905381943
 20
-0.3017903645833333
 10
-2.945212131076388
 20
-0.0523654513888889
 10
-2.726793077256943
 20
0.2993787977430555
 10
-2.454286024305555
 20
0.7338053385416666
 10
-2.290988498263887
 20
0.9904649522569444
 10
-2.237245008680555
 20
1.069357638888887
 10
-2.237245008680555
 20
1.069357638888887
 10
-1.603002929687499
 20
1.069357638888887
 10
-1.603002929687499
 20
1.069357638888887
 97
        0
 75
     0
 76
     1
 98
        1
 10
0.0
 20
0.0
  0
HATCH
  5
38B
330
388
100
AcDbEntity
  8
レイヤー_1
 62
     7
100
AcDbHatch
 10
0.0
 20
0.0
 30
0.0
210
0.0
220
0.0
230
1.0
  2
SOLID
 70
     1
 71
     0
 91
        1
 92
        1
 93
        1
 72
     4
 94
        3
 73
     0
 74
     0
 95
       92
 96
       88
 40
0.0
 40
0.0
 40
0.0
 40
0.0
 40
1.0
 40
1.0
 40
1.0
 40
2.0
 40
2.0
 40
2.0
 40
3.0
 40
3.0
 40
3.0
 40
4.0
 40
4.0
 40
4.0
 40
5.0
 40
5.0
 40
5.0
 40
6.0
 40
6.0
 40
6.0
 40
7.0
 40
7.0
 40
7.0
 40
8.0
 40
8.0
 40
8.0
 40
9.0
 40
9.0
 40
9.0
 40
10.0
 40
10.0
 40
10.0
 40
11.0
 40
11.0
 40
11.0
 40
12.0
 40
12.0
 40
12.0
 40
13.0
 40
13.0
 40
13.0
 40
14.0
 40
14.0
 40
14.0
 40
15.0
 40
15.0
 40
15.0
 40
16.0
 40
16.0
 40
16.0
 40
17.0
 40
17.0
 40
17.0
 40
18.0
 40
18.0
 40
18.0
 40
19.0
 40
19.0
 40
19.0
 40
20.0
 40
20.0
 40
20.0
 40
21.0
 40
21.0
 40
21.0
 40
22.0
 40
22.0
 40
22.0
 40
23.0
 40
23.0
 40
23.0
 40
24.0
 40
24.0
 40
24.0
 40
25.0
 40
25.0
 40
25.0
 40
26.0
 40
26.0
 40
26.0
 40
27.0
 40
27.0
 40
27.0
 40
28.0
 40
28.0
 40
28.0
 40
29.0
 40
29.0
 40
29.0
 40
29.0
 10
1.574064127604166
 20
1.083138020833333
 10
1.574064127604166
 20
0.9973551432291666
 10
1.47932400173611
 20
0.7882378472222223
 10
1.289499240451387
 20
0.4557861328125
 10
1.067979600694443
 20
0.0627007378472222
 10
0.8406032986111108
 20
-0.2576931423611111
 10
0.6080593532986111
 20
-0.5043619791666666
 10
0.2969672309027778
 20
-0.8295789930555555
 10
0.0161919487847222
 20
-0.9921875
 10
-0.2342664930555555
 20
-0.9921875
 10
-0.3951524522569444
 20
-0.9921875
 10
-0.5367458767361111
 20
-0.9542914496527775
 10
-0.6583577473958333
 20
-0.8791883680555553
 10
-0.6976318359375
 20
-0.8536946614583332
 10
-0.744140625
 20
-0.8109754774305555
 10
-0.7978841145833333
 20
-0.7496527777777777
 10
-0.8337131076388889
 20
-0.8168321397569442
 10
-0.8691975911458332
 20
-0.8664415147569444
 10
-0.9050265842013887
 20
-0.8984809027777775
 10
-1.015958658854165
 20
-0.9901204427083332
 10
-1.167887369791666
 20
-1.036284722222222
 10
-1.361157226562499
 20
-1.036284722222222
 10
-1.543747287326388
 20
-1.036284722222222
 10
-1.707389322916665
 20
-0.9914984809027775
 10
-1.852083333333331
 20
-0.9022705078125
 10
-1.99712185329861
 20
-0.8130425347222221
 10
-2.069468858506944
 20
-0.6969428168402777
 10
-2.069468858506944
 20
-0.5539713541666666
 10
-2.069468858506944
 20
-0.4113444010416666
 10
-1.992643229166666
 20
-0.2235866970486111
 10
-1.8386474609375
 20
0.0086127387152778
 10
-1.462787543402776
 20
0.5732638888888888
 10
-1.234033203125
 20
0.9267306857638889
 10
-1.151695421006944
 20
1.0697021484375
 10
-1.151695421006944
 20
1.0697021484375
 10
-0.5718858506944446
 20
1.0697021484375
 10
-0.5718858506944446
 20
1.0697021484375
 10
-0.8657524956597221
 20
0.6307969835069444
 10
-1.089683702256944
 20
0.2828423394097222
 10
-1.24367947048611
 20
0.0258382161458333
 10
-1.412144639756944
 20
-0.2525254991319444
 10
-1.496204969618054
 20
-0.4561306423611111
 10
-1.496204969618054
 20
-0.5842881944444444
 10
-1.496204969618054
 20
-0.713134765625
 10
-1.437293836805555
 20
-0.7772135416666666
 10
-1.319127061631943
 20
-0.7772135416666666
 10
-1.19717068142361
 20
-0.7772135416666666
 10
-1.020092773437498
 20
-0.6345865885416666
 10
-0.787548828125
 20
-0.3489881727430556
 10
-0.6228732638888889
 20
-0.1453830295138889
 10
-0.4275363498263888
 20
0.13642578125
 10
-0.2022271050347222
 20
0.4967827690972222
 10
-0.0875054253472222
 20
0.6859185112847223
 10
0.0285942925347222
 20
0.8750542534722221
 10
0.1467610677083333
 20
1.064189995659722
 10
0.1467610677083333
 20
1.064189995659722
 10
0.7858262803819444
 20
1.064189995659722
 10
0.7858262803819444
 20
1.064189995659722
 10
0.4747341579861112
 20
0.6066813151041666
 10
0.2439127604166667
 20
0.2525254991319444
 10
0.0937065972222222
 20
0.0024115668402778
 10
-0.0675238715277778
 20
-0.2625162760416667
 10
-0.1477945963541666
 20
-0.4375271267361111
 10
-0.1477945963541666
 20
-0.5233100043402778
 10
-0.1477945963541666
 20
-0.6483669704861109
 10
-0.0940511067708333
 20
-0.7110677083333333
 10
0.0134358723958333
 20
-0.7110677083333333
 10
0.1743218315972222
 20
-0.7110677083333333
 10
0.4251247829861111
 20
-0.4699110243055555
 10
0.765500217013889
 20
0.0120578342013889
 10
1.091406249999999
 20
0.4726671006944444
 10
1.254359266493054
 20
0.7744574652777777
 10
1.254359266493054
 20
0.9170844184027775
 10
1.254359266493054
 20
0.9349989149305551
 10
1.245057508680554
 20
0.9529134114583332
 10
1.226798502604165
 20
0.9708279079861112
 10
1.219563802083333
 20
0.9780626085069441
 10
1.21577419704861
 20
0.9852973090277775
 10
1.21577419704861
 20
0.9921875
 10
1.21577419704861
 20
1.034906684027776
 10
1.253325737847222
 20
1.081415473090276
 10
1.328084309895833
 20
1.131369357638887
 10
1.381483289930554
 20
1.167198350694444
 10
1.427992078993054
 20
1.185112847222221
 10
1.467266167534721
 20
1.185112847222221
 10
1.53857964409722
 20
1.185112847222221
 10
1.574064127604166
 20
1.15100640190972
 10
1.574064127604166
 20
1.083138020833333
 97
        0
 75
     0
 76
     1
 98
        1
 10
0.0
 20
0.0
  0
HATCH
  5
38C
330
388
100
AcDbEntity
  8
レイヤー_1
 62
     7
100
AcDbHatch
 10
0.0
 20
0.0
 30
0.0
210
0.0
220
0.0
230
1.0
  2
SOLID
 70
     1
 71
     0
 91
        2
 92
        1
 93
        1
 72
     4
 94
        3
 73
     0
 74
     0
 95
       29
 96
       25
 40
0.0
 40
0.0
 40
0.0
 40
0.0
 40
1.0
 40
1.0
 40
1.0
 40
2.0
 40
2.0
 40
2.0
 40
3.0
 40
3.0
 40
3.0
 40
4.0
 40
4.0
 40
4.0
 40
5.0
 40
5.0
 40
5.0
 40
6.0
 40
6.0
 40
6.0
 40
7.0
 40
7.0
 40
7.0
 40
8.0
 40
8.0
 40
8.0
 40
8.0
 10
3.225642903645832
 20
1.852083333333331
 10
3.225642903645832
 20
1.748385959201387
 10
3.188091362847221
 20
1.65915798611111
 10
3.112988281249998
 20
1.584054904513888
 10
3.038229709201389
 20
1.509296332465276
 10
2.9486572265625
 20
1.471744791666665
 10
2.845304361979166
 20
1.471744791666665
 10
2.74160698784722
 20
1.471744791666665
 10
2.652379014756943
 20
1.509296332465276
 10
2.577275933159721
 20
1.584054904513888
 10
2.50251736111111
 20
1.65915798611111
 10
2.4649658203125
 20
1.748385959201387
 10
2.4649658203125
 20
1.852083333333331
 10
2.4649658203125
 20
1.955436197916665
 10
2.50251736111111
 20
2.045008680555554
 10
2.577275933159721
 20
2.119939507378471
 10
2.652379014756943
 20
2.194870334201388
 10
2.74160698784722
 20
2.232421875
 10
2.845304361979166
 20
2.232421875
 10
2.9486572265625
 20
2.232421875
 10
3.038229709201389
 20
2.194870334201388
 10
3.112988281249998
 20
2.119939507378471
 10
3.188091362847221
 20
2.045008680555554
 10
3.225642903645832
 20
1.955436197916665
 10
3.225642903645832
 20
1.852083333333331
 97
        0
 92
        1
 93
        1
 72
     4
 94
        3
 73
     0
 74
     0
 95
       50
 96
       46
 40
0.0
 40
0.0
 40
0.0
 40
0.0
 40
1.0
 40
1.0
 40
1.0
 40
2.0
 40
2.0
 40
2.0
 40
3.0
 40
3.0
 40
3.0
 40
4.0
 40
4.0
 40
4.0
 40
5.0
 40
5.0
 40
5.0
 40
6.0
 40
6.0
 40
6.0
 40
7.0
 40
7.0
 40
7.0
 40
8.0
 40
8.0
 40
8.0
 40
9.0
 40
9.0
 40
9.0
 40
10.0
 40
10.0
 40
10.0
 40
11.0
 40
11.0
 40
11.0
 40
12.0
 40
12.0
 40
12.0
 40
13.0
 40
13.0
 40
13.0
 40
14.0
 40
14.0
 40
14.0
 40
15.0
 40
15.0
 40
15.0
 40
15.0
 10
3.079915364583333
 20
0.3341742621527777
 10
3.079915364583333
 20
0.291455078125
 10
2.994132486979166
 20
0.1643310546875
 10
2.822222222222221
 20
-0.0468532986111111
 10
2.628952365451388
 20
-0.2866319444444444
 10
2.427069769965276
 20
-0.4888590494791666
 10
2.215885416666666
 20
-0.6531901041666666
 10
1.943722873263888
 20
-0.8609293619791666
 10
1.709456380208333
 20
-0.9646267361111108
 10
1.512741427951388
 20
-0.9646267361111108
 10
1.272962782118054
 20
-0.9646267361111108
 10
1.153073459201387
 20
-0.8378472222222221
 10
1.153073459201387
 20
-0.5835991753472222
 10
1.153073459201387
 20
-0.3689697265625
 10
1.246091037326387
 20
-0.1219563802083333
 10
1.432126193576388
 20
0.1570963541666667
 10
1.64675564236111
 20
0.418234592013889
 10
1.861385091145831
 20
0.6810953776041666
 10
2.076359049479166
 20
0.9460232204861107
 10
2.076359049479166
 20
0.9460232204861107
 10
2.1083984375
 20
1.069357638888887
 10
2.1083984375
 20
1.069357638888887
 10
2.1083984375
 20
1.069357638888887
 10
2.795694986979166
 20
1.069357638888887
 10
2.795694986979166
 20
1.069357638888887
 10
2.795694986979166
 20
1.069357638888887
 10
2.72610405815972
 20
0.9084716796875
 10
2.72610405815972
 20
0.9084716796875
 10
2.461865234374998
 20
0.5649956597222224
 10
2.25481499565972
 20
0.2893880208333333
 10
2.104953342013887
 20
0.0819932725694444
 10
1.940622287326388
 20
-0.1436604817708333
 10
1.858629014756943
 20
-0.3117811414930555
 10
1.858629014756943
 20
-0.4227132161458333
 10
1.858629014756943
 20
-0.5157307942708334
 10
1.899625651041666
 20
-0.5622395833333334
 10
1.98196343315972
 20
-0.5622395833333334
 10
2.081871202256944
 20
-0.5622395833333334
 10
2.235177951388887
 20
-0.4612982855902778
 10
2.442572699652776
 20
-0.2590711805555556
 10
2.649622938368055
 20
-0.0568440755208333
 10
2.858740234375
 20
0.1498616536458333
 10
3.069235568576389
 20
0.3610460069444444
 10
3.069235568576389
 20
0.3610460069444444
 10
3.079915364583333
 20
0.3341742621527777
 10
3.079915364583333
 20
0.3341742621527777
 97
        0
 75
     0
 76
     1
 98
        1
 10
0.0
 20
0.0
  0
HATCH
  5
38D
330
388
100
AcDbEntity
  8
レイヤー_1
 62
     7
100
AcDbHatch
 10
0.0
 20
0.0
 30
0.0
210
0.0
220
0.0
230
1.0
  2
SOLID
 70
     1
 71
     0
 91
        1
 92
        1
 93
        1
 72
     4
 94
        3
 73
     0
 74
     0
 95
       83
 96
       79
 40
0.0
 40
0.0
 40
0.0
 40
0.0
 40
1.0
 40
1.0
 40
1.0
 40
2.0
 40
2.0
 40
2.0
 40
3.0
 40
3.0
 40
3.0
 40
4.0
 40
4.0
 40
4.0
 40
5.0
 40
5.0
 40
5.0
 40
6.0
 40
6.0
 40
6.0
 40
7.0
 40
7.0
 40
7.0
 40
8.0
 40
8.0
 40
8.0
 40
9.0
 40
9.0
 40
9.0
 40
10.0
 40
10.0
 40
10.0
 40
11.0
 40
11.0
 40
11.0
 40
12.0
 40
12.0
 40
12.0
 40
13.0
 40
13.0
 40
13.0
 40
14.0
 40
14.0
 40
14.0
 40
15.0
 40
15.0
 40
15.0
 40
16.0
 40
16.0
 40
16.0
 40
17.0
 40
17.0
 40
17.0
 40
18.0
 40
18.0
 40
18.0
 40
19.0
 40
19.0
 40
19.0
 40
20.0
 40
20.0
 40
20.0
 40
21.0
 40
21.0
 40
21.0
 40
22.0
 40
22.0
 40
22.0
 40
23.0
 40
23.0
 40
23.0
 40
24.0
 40
24.0
 40
24.0
 40
25.0
 40
25.0
 40
25.0
 40
26.0
 40
26.0
 40
26.0
 40
26.0
 10
4.909605577256943
 20
0.3717258029513889
 10
4.909605577256943
 20
0.2962782118055555
 10
4.822100151909721
 20
0.148828125
 10
4.646744791666664
 20
-0.0702799479166667
 10
4.453474934895831
 20
-0.3110921223958333
 10
4.25124782986111
 20
-0.5157307942708334
 10
4.040407986111111
 20
-0.6848849826388889
 10
3.78271484375
 20
-0.8822889539930555
 10
3.566362847222221
 20
-0.9811631944444444
 10
3.391007486979166
 20
-0.9811631944444444
 10
3.297989908854166
 20
-0.9811631944444444
 10
3.229777018229166
 20
-0.9542914496527775
 10
3.187057834201388
 20
-0.9005479600694441
 10
3.143994140624998
 20
-0.8464599609375
 10
3.12263454861111
 20
-0.7782470703125
 10
3.12263454861111
 20
-0.6959092881944446
 10
3.12263454861111
 20
-0.5450141059027778
 10
3.227365451388888
 20
-0.3476101345486111
 10
3.436482747395833
 20
-0.1033528645833333
 10
3.645944552951388
 20
0.1405598958333333
 10
3.861263020833332
 20
0.3865397135416666
 10
4.083127170138888
 20
0.6342420789930557
 10
4.083127170138888
 20
0.6342420789930557
 10
4.061767578125
 20
0.6504340277777777
 10
4.061767578125
 20
0.6504340277777777
 10
4.008024088541665
 20
0.6504340277777777
 10
3.855750868055555
 20
0.5608615451388889
 10
3.605292426215275
 20
0.3820610894097222
 10
3.483680555555555
 20
0.2962782118055555
 10
3.372748480902776
 20
0.2532145182291666
 10
3.272496202256943
 20
0.2532145182291666
 10
3.211862521701388
 20
0.2532145182291666
 10
3.158808051215276
 20
0.266650390625
 10
3.114366319444443
 20
0.2935221354166667
 10
3.069580078125
 20
0.3203938802083333
 10
3.047186957465276
 20
0.3603569878472222
 10
3.047186957465276
 20
0.4141004774305557
 10
3.047186957465276
 20
0.539501953125
 10
3.147439236111109
 20
0.6993543836805555
 10
3.347599283854166
 20
0.8936577690972221
 10
3.548103841145831
 20
1.087961154513887
 10
3.691075303819443
 20
1.185112847222221
 10
3.777202690972221
 20
1.185112847222221
 10
3.80200737847222
 20
1.185112847222221
 10
3.818199327256943
 20
1.152039930555554
 10
3.825434027777776
 20
1.085894097222222
 10
3.832668728298609
 20
1.019748263888887
 10
3.8540283203125
 20
0.9866753472222221
 10
3.889857313368055
 20
0.9866753472222221
 10
3.990109592013888
 20
1.008723958333332
 10
4.086572265624998
 20
1.028016493055555
 10
4.179589843749998
 20
1.044897460937499
 10
4.272607421874998
 20
1.061433919270833
 10
4.345987955729166
 20
1.0697021484375
 10
4.399731445312498
 20
1.0697021484375
 10
4.492749023437498
 20
1.0697021484375
 10
4.570608181423608
 20
1.06074490017361
 10
4.633308919270833
 20
1.042830403645832
 10
4.696009657118054
 20
1.024915907118055
 10
4.727360026041666
 20
0.9908094618055557
 10
4.727360026041666
 20
0.9405110677083332
 10
4.727360026041666
 20
0.8474934895833332
 10
4.566474066840277
 20
0.6394097222222223
 10
4.244702148437498
 20
0.316259765625
 10
3.922930230034721
 20
-0.006201171875
 10
3.762044270833333
 20
-0.2449462890625
 10
3.762044270833333
 20
-0.3989420572916667
 10
3.762044270833333
 20
-0.4602647569444444
 10
3.797873263888889
 20
-0.4905815972222224
 10
3.869186740451388
 20
-0.4905815972222224
 10
3.994243706597221
 20
-0.4905815972222224
 10
4.148928493923611
 20
-0.3944634331597222
 10
4.333241102430553
 20
-0.2022271050347222
 10
4.517209201388888
 20
-0.0099907769097222
 10
4.704277886284721
 20
0.1867241753472222
 10
4.893758138020833
 20
0.3879177517361111
 10
4.893758138020833
 20
0.3879177517361111
 10
4.909605577256943
 20
0.3717258029513889
 10
4.909605577256943
 20
0.3717258029513889
 97
        0
 75
     0
 76
     1
 98
        1
 10
0.0
 20
0.0
  0
HATCH
  5
38E
330
388
100
AcDbEntity
  8
レイヤー_1
 62
     7
100
AcDbHatch
 10
0.0
 20
0.0
 30
0.0
210
0.0
220
0.0
230
1.0
  2
SOLID
 70
     1
 71
     0
 91
        1
 92
        1
 93
        1
 72
     4
 94
        3
 73
     0
 74
     0
 95
       77
 96
       73
 40
0.0
 40
0.0
 40
0.0
 40
0.0
 40
1.0
 40
1.0
 40
1.0
 40
2.0
 40
2.0
 40
2.0
 40
3.0
 40
3.0
 40
3.0
 40
4.0
 40
4.0
 40
4.0
 40
5.0
 40
5.0
 40
5.0
 40
6.0
 40
6.0
 40
6.0
 40
7.0
 40
7.0
 40
7.0
 40
8.0
 40
8.0
 40
8.0
 40
9.0
 40
9.0
 40
9.0
 40
10.0
 40
10.0
 40
10.0
 40
11.0
 40
11.0
 40
11.0
 40
12.0
 40
12.0
 40
12.0
 40
13.0
 40
13.0
 40
13.0
 40
14.0
 40
14.0
 40
14.0
 40
15.0
 40
15.0
 40
15.0
 40
16.0
 40
16.0
 40
16.0
 40
17.0
 40
17.0
 40
17.0
 40
18.0
 40
18.0
 40
18.0
 40
19.0
 40
19.0
 40
19.0
 40
20.0
 40
20.0
 40
20.0
 40
21.0
 40
21.0
 40
21.0
 40
22.0
 40
22.0
 40
22.0
 40
23.0
 40
23.0
 40
23.0
 40
24.0
 40
24.0
 40
24.0
 40
24.0
 10
5.009168836805554
 20
-1.003211805555555
 10
4.815898980034721
 20
-1.003211805555555
 10
4.659491644965277
 20
-0.9673828125
 10
4.539602322048608
 20
-0.8957248263888889
 10
4.419712999131943
 20
-0.8240668402777775
 10
4.359768337673609
 20
-0.7114122178819446
 10
4.359768337673609
 20
-0.5574164496527777
 10
4.359768337673609
 20
-0.2390896267361111
 10
4.574397786458331
 20
0.1102430555555556
 10
5.003656684027776
 20
0.4895480685763888
 10
5.447384982638887
 20
0.8833224826388887
 10
5.874921332465278
 20
1.080381944444444
 10
6.286610243055553
 20
1.080381944444444
 10
6.429581705729166
 20
1.080381944444444
 10
6.551193576388887
 20
1.055232747395832
 10
6.651445855034721
 20
1.005278862847222
 10
6.751698133680553
 20
0.95498046875
 10
6.801652018229166
 20
0.8781548394097221
 10
6.801652018229166
 20
0.7744574652777777
 10
6.801652018229166
 20
0.5415690104166666
 10
6.633531358506941
 20
0.3252170138888889
 10
6.297290039062498
 20
0.1247124565972222
 10
5.982408311631941
 20
-0.0613226996527778
 10
5.676483832465276
 20
-0.1543402777777778
 10
5.379516601562499
 20
-0.1543402777777778
 10
5.304413519965276
 20
-0.1543402777777778
 10
5.266861979166664
 20
-0.1398708767361111
 10
5.266861979166664
 20
-0.1102430555555556
 10
5.266861979166664
 20
-0.0737250434027778
 10
5.302690972222221
 20
-0.0551215277777778
 10
5.374348958333332
 20
-0.0551215277777778
 10
5.614472113715276
 20
-0.0551215277777778
 10
5.859762912326386
 20
0.0571885850694444
 10
6.110565863715276
 20
0.2818088107638889
 10
6.343454318576386
 20
0.4919596354166666
 10
6.459898546006941
 20
0.6773057725694444
 10
6.459898546006941
 20
0.8378472222222221
 10
6.459898546006941
 20
0.8874565972222221
 10
6.443017578124998
 20
0.9294867621527775
 10
6.4089111328125
 20
0.9632486979166666
 10
6.374804687499998
 20
0.9973551432291666
 10
6.328984917534719
 20
1.01423611111111
 10
6.271796332465276
 20
1.01423611111111
 10
6.060267469618054
 20
1.01423611111111
 10
5.784315321180554
 20
0.7951280381944443
 10
5.443939887152776
 20
0.3565673828124999
 10
5.103219943576387
 20
-0.0819932725694444
 10
4.933032226562498
 20
-0.4137559678819444
 10
4.933032226562498
 20
-0.6394097222222223
 10
4.933032226562498
 20
-0.7145128038194444
 10
4.977818467881943
 20
-0.7699788411458333
 10
5.067390950520833
 20
-0.8058078342013887
 10
5.131814236111111
 20
-0.83095703125
 10
5.201405164930553
 20
-0.843359375
 10
5.276852756076388
 20
-0.843359375
 10
5.495271809895832
 20
-0.843359375
 10
5.769156901041665
 20
-0.7375949435763888
 10
6.098508029513887
 20
-0.5260660807291666
 10
6.320372178819441
 20
-0.3865397135416666
 10
6.578065321180553
 20
-0.1908582899305555
 10
6.871587456597219
 20
0.0599446614583333
 10
7.125835503472222
 20
0.2749186197916667
 10
7.26191677517361
 20
0.3824055989583333
 10
7.279831271701388
 20
0.3824055989583333
 10
7.283276367187498
 20
0.328662109375
 10
7.167176649305553
 20
0.1908582899305555
 10
6.930843098958332
 20
-0.031005859375
 10
6.655235460069443
 20
-0.2886990017361111
 10
6.367225477430555
 20
-0.5036729600694444
 10
6.066813151041665
 20
-0.6755832248263888
 10
5.673038736979164
 20
-0.8940022786458332
 10
5.320605468749998
 20
-1.003211805555555
 10
5.009168836805554
 20
-1.003211805555555
 97
        0
 75
     0
 76
     1
 98
        1
 10
0.0
 20
0.0
  0
ENDBLK
  5
390
330
388
100
AcDbEntity
  8
レイヤー_1
100
AcDbBlockEnd
  0
BLOCK
  5
395
330
391
100
AcDbEntity
  8
0
 48
0.3
100
AcDbBlockBegin
  2
_Open30
 70
     0
 10
0.0
 20
0.0
 30
0.0
  3
_Open30
  1

  0
LINE
  5
392
330
391
100
AcDbEntity
  8
0
  6
ByBlock
 62
     0
370
    -2
100
AcDbLine
 10
-1.0
 20
0.26794919
 30
0.0
 11
0.0
 21
0.0
 31
0.0
  0
LINE
  5
393
330
391
100
AcDbEntity
  8
0
  6
ByBlock
 62
     0
370
    -2
100
AcDbLine
 10
0.0
 20
0.0
 30
0.0
 11
-1.0
 21
-0.26794919
 31
0.0
  0
LINE
  5
394
330
391
100
AcDbEntity
  8
0
  6
ByBlock
 62
     0
370
    -2
100
AcDbLine
 10
0.0
 20
0.0
 30
0.0
 11
-1.0
 21
0.0
 31
0.0
  0
ENDBLK
  5
396
330
391
100
AcDbEntity
  8
0
 48
0.3
100
AcDbBlockEnd
  0
BLOCK
  5
3EE
330
3CB
100
AcDbEntity
  8
0
100
AcDbBlockBegin
  2
A4ﾜｸﾖｺ
 70
     0
 10
0.0
 20
0.0
 30
0.0
  3
A4ﾜｸﾖｺ
  1

  0
LINE
  5
3CC
102
{ACAD_REACTORS
330
3CA
102
}
330
3CB
100
AcDbEntity
  8
0
  6
Continuous
370
    13
100
AcDbLine
 10
187.0
 20
7.5
 30
0.0
 11
187.0
 21
37.5
 31
0.0
  0
LINE
  5
3CD
102
{ACAD_REACTORS
330
3CA
102
}
330
3CB
100
AcDbEntity
  8
0
  6
Continuous
370
    13
100
AcDbLine
 10
285.0
 20
17.5
 30
0.0
 11
127.0
 21
17.5
 31
0.0
  0
LINE
  5
3CE
102
{ACAD_REACTORS
330
3CA
102
}
330
3CB
100
AcDbEntity
  8
0
  6
Continuous
370
    13
100
AcDbLine
 10
127.0
 20
7.5
 30
0.0
 11
127.0
 21
37.5
 31
0.0
  0
LINE
  5
3CF
102
{ACAD_REACTORS
330
3CA
102
}
330
3CB
100
AcDbEntity
  8
0
  6
Continuous
370
    13
100
AcDbLine
 10
127.0
 20
37.5
 30
0.0
 11
285.0
 21
37.5
 31
0.0
  0
LINE
  5
3D0
102
{ACAD_REACTORS
330
3CA
102
}
330
3CB
100
AcDbEntity
  8
0
  6
Continuous
370
    13
100
AcDbLine
 10
147.0
 20
17.5
 30
0.0
 11
147.0
 21
37.5
 31
0.0
  0
LINE
  5
3D1
102
{ACAD_REACTORS
330
3CA
102
}
330
3CB
100
AcDbEntity
  8
0
  6
Continuous
370
    13
100
AcDbLine
 10
167.0
 20
37.5
 30
0.0
 11
167.0
 21
17.5
 31
0.0
  0
LINE
  5
3D2
102
{ACAD_REACTORS
330
3CA
102
}
330
3CB
100
AcDbEntity
  8
0
  6
Continuous
370
    13
100
AcDbLine
 10
207.0
 20
7.5
 30
0.0
 11
207.0
 21
17.5
 31
0.0
  0
LINE
  5
3D3
102
{ACAD_REACTORS
330
3CA
102
}
330
3CB
100
AcDbEntity
  8
0
  6
Continuous
370
    13
100
AcDbLine
 10
273.5
 20
7.5
 30
0.0
 11
273.5
 21
17.5
 31
0.0
  0
LINE
  5
3D4
102
{ACAD_REACTORS
330
3CA
102
}
330
3CB
100
AcDbEntity
  8
0
  6
Continuous
370
    13
100
AcDbLine
 10
207.0
 20
12.5
 30
0.0
 11
273.5
 21
12.5
 31
0.0
  0
MTEXT
  5
3D5
102
{ACAD_REACTORS
330
3CA
102
}
330
3CB
100
AcDbEntity
  8
0
  6
Continuous
370
    13
100
AcDbMText
 10
148.0
 20
36.49999999999999
 30
0.0
 40
2.499999999999999
 41
15.0
 71
     1
 72
     5
  1
{\fＭＳ ゴシック|b0|i0|c128|p49;作成}
 73
     1
 44
1.0
1001
ACAD
1000
MTEXTBEGIN
1070
    73
1070
     1
1070
    44
1040
1.0
1070
    74
1070
     0
1000
MTEXTEND
  0
MTEXT
  5
3D6
102
{ACAD_REACTORS
330
3CA
102
}
330
3CB
100
AcDbEntity
  8
0
  6
Continuous
370
    13
100
AcDbMText
 10
167.9999999999999
 20
36.49999999999999
 30
0.0
 40
2.499999999999999
 41
15.0
 71
     1
 72
     5
  1
{\fＭＳ ゴシック|b0|i0|c128|p49;照査}
 73
     1
 44
1.0
1001
ACAD
1000
MTEXTBEGIN
1070
    73
1070
     1
1070
    44
1040
1.0
1070
    74
1070
     0
1000
MTEXTEND
  0
MTEXT
  5
3D7
102
{ACAD_REACTORS
330
3CA
102
}
330
3CB
100
AcDbEntity
  8
0
  6
Continuous
370
    13
100
AcDbMText
 10
188.0
 20
36.49999999999999
 30
0.0
 40
2.499999999999999
 41
15.0
 71
     1
 72
     5
  1
{\fＭＳ ゴシック|b0|i0|c128|p49;承認}
 73
     1
 44
1.0
1001
ACAD
1000
MTEXTBEGIN
1070
    73
1070
     1
1070
    44
1040
1.0
1070
    74
1070
     0
1000
MTEXTEND
  0
MTEXT
  5
3D8
102
{ACAD_REACTORS
330
3CA
102
}
330
3CB
100
AcDbEntity
  8
0
  6
Continuous
370
    13
100
AcDbMText
 10
209.0
 20
36.49999999999999
 30
0.0
 40
3.0
 41
20.0
 71
     1
 72
     5
  1
{\fＭＳ ゴシック|b0|i0|c128|p49;タイトル}
 73
     1
 44
1.0
1001
ACAD
1000
MTEXTBEGIN
1070
    73
1070
     1
1070
    44
1040
1.0
1070
    74
1070
     0
1000
MTEXTEND
  0
MTEXT
  5
3D9
102
{ACAD_REACTORS
330
3CA
102
}
330
3CB
100
AcDbEntity
  8
0
  6
Continuous
370
    13
100
AcDbMText
 10
208.0
 20
16.5
 30
0.0
 40
3.0
 41
30.0
 71
     1
 72
     5
  1
{\fＭＳ ゴシック|b0|i0|c128|p49;ﾌｧｲﾙ名称}
 73
     1
 44
1.0
1001
ACAD
1000
MTEXTBEGIN
1070
    73
1070
     1
1070
    44
1040
1.0
1070
    74
1070
     0
1000
MTEXTEND
  0
MTEXT
  5
3DA
102
{ACAD_REACTORS
330
3CA
102
}
330
3CB
100
AcDbEntity
  8
0
  6
Continuous
370
    13
100
AcDbMText
 10
208.0
 20
11.5
 30
0.0
 40
3.0
 41
30.0
 71
     1
 72
     5
  1
{\fＭＳ ゴシック|b0|i0|c128|p49;図面　NO.}
 73
     1
 44
1.0
1001
ACAD
1000
MTEXTBEGIN
1070
    73
1070
     1
1070
    44
1040
1.0
1070
    74
1070
     0
1000
MTEXTEND
  0
MTEXT
  5
3DB
102
{ACAD_REACTORS
330
3CA
102
}
330
3CB
100
AcDbEntity
  8
0
  6
Continuous
370
    13
100
AcDbMText
 10
188.0
 20
16.5
 30
0.0
 40
1.999999999999999
 41
0.0
 71
     1
 72
     5
  1
{\fＭＳ ゴシック|b0|i0|c128|p49;ｼｰﾄ}
 73
     1
 44
1.0
1001
ACAD
1000
MTEXTBEGIN
1070
    73
1070
     1
1070
    44
1040
1.0
1070
    74
1070
     0
1000
MTEXTEND
  0
MTEXT
  5
3DC
102
{ACAD_REACTORS
330
3CA
102
}
330
3CB
100
AcDbEntity
  8
0
  6
Continuous
370
    13
100
AcDbMText
 10
274.5
 20
16.5
 30
0.0
 40
1.999999999999999
 41
15.0
 71
     1
 72
     5
  1
{\fＭＳ ゴシック|b0|i0|c128|p49;改正}
 73
     1
 44
1.0
1001
ACAD
1000
MTEXTBEGIN
1070
    73
1070
     1
1070
    44
1040
1.0
1070
    74
1070
     0
1000
MTEXTEND
  0
LINE
  5
3DD
102
{ACAD_REACTORS
330
3CA
102
}
330
3CB
100
AcDbEntity
  8
0
  6
Continuous
 62
     0
370
    13
100
AcDbLine
 10
19.5
 20
37.5
 30
0.0
 11
19.5
 21
7.5
 31
0.0
  0
LINE
  5
3DE
102
{ACAD_REACTORS
330
3CA
102
}
330
3CB
100
AcDbEntity
  8
0
  6
Continuous
 62
     0
370
    13
100
AcDbLine
 10
39.5
 20
37.5
 30
0.0
 11
39.5
 21
7.5
 31
0.0
  0
MTEXT
  5
3DF
102
{ACAD_REACTORS
330
3CA
102
}
330
3CB
100
AcDbEntity
  8
0
  6
Continuous
370
    13
100
AcDbMText
 10
21.66948028696993
 20
36.49999999999999
 30
0.0
 40
3.0
 41
30.0
 71
     1
 72
     5
  1
{\fＭＳ ゴシック|b0|i0|c128|p49;年.月.日}
 73
     1
 44
1.0
1001
ACAD
1000
MTEXTBEGIN
1070
    73
1070
     1
1070
    44
1040
1.0
1070
    74
1070
     0
1000
MTEXTEND
  0
MTEXT
  5
3E0
102
{ACAD_REACTORS
330
3CA
102
}
330
3CB
100
AcDbEntity
  8
0
  6
Continuous
370
    13
100
AcDbMText
 10
7.1556160319717
 20
36.49999999999999
 30
0.0
 40
3.0
 41
9.999999999999998
 71
     1
 72
     5
  1
{\fＭＳ ゴシック|b0|i0|c128|p49;改正}
 73
     1
 44
1.0
1001
ACAD
1000
MTEXTBEGIN
1070
    73
1070
     1
1070
    44
1040
1.0
1070
    74
1070
     0
1000
MTEXTEND
  0
MTEXT
  5
3E1
102
{ACAD_REACTORS
330
3CA
102
}
330
3CB
100
AcDbEntity
  8
0
  6
Continuous
370
    13
100
AcDbMText
 10
53.36217101000852
 20
36.49999999999999
 30
0.0
 40
3.0
 41
50.0
 71
     1
 72
     5
  1
{\fＭＳ ゴシック|b0|i0|c128|p49;改　正　内　容}
 73
     1
 44
1.0
1001
ACAD
1000
MTEXTBEGIN
1070
    73
1070
     1
1070
    44
1040
1.0
1070
    74
1070
     0
1000
MTEXTEND
  0
LINE
  5
3E2
102
{ACAD_REACTORS
330
3CA
102
}
330
3CB
100
AcDbEntity
  8
0
  6
Continuous
 62
     0
370
    13
100
AcDbLine
 10
127.0
 20
37.5
 30
0.0
 11
4.5
 21
37.5
 31
0.0
  0
LINE
  5
3E3
102
{ACAD_REACTORS
330
3CA
102
}
330
3CB
100
AcDbEntity
  8
0
  6
Continuous
 62
     0
370
    13
100
AcDbLine
 10
127.0
 20
32.5
 30
0.0
 11
4.5
 21
32.5
 31
0.0
  0
LINE
  5
3E4
102
{ACAD_REACTORS
330
3CA
102
}
330
3CB
100
AcDbEntity
  8
0
  6
Continuous
 62
     0
370
    13
100
AcDbLine
 10
127.0
 20
22.5
 30
0.0
 11
4.5
 21
22.5
 31
0.0
  0
LINE
  5
3E5
102
{ACAD_REACTORS
330
3CA
102
}
330
3CB
100
AcDbEntity
  8
0
  6
Continuous
 62
     0
370
    13
100
AcDbLine
 10
147.0
 20
27.5
 30
0.0
 11
4.5
 21
27.5
 31
0.0
  0
LINE
  5
3E6
102
{ACAD_REACTORS
330
3CA
102
}
330
3CB
100
AcDbEntity
  8
0
  6
Continuous
 62
     0
370
    13
100
AcDbLine
 10
127.0
 20
12.5
 30
0.0
 11
4.5
 21
12.5
 31
0.0
  0
LINE
  5
3E7
102
{ACAD_REACTORS
330
3CA
102
}
330
3CB
100
AcDbEntity
  8
0
  6
Continuous
 62
     0
370
    13
100
AcDbLine
 10
127.0
 20
17.5
 30
0.0
 11
4.5
 21
17.5
 31
0.0
  0
MTEXT
  5
3E8
102
{ACAD_REACTORS
330
3CA
102
}
330
3CB
100
AcDbEntity
  8
0
  6
Continuous
370
    13
100
AcDbMText
 10
153.3730974688331
 20
14.87312439321681
 30
0.0
 40
3.0
 41
0.0
 71
     1
 72
     5
  1
{\fＭＳ Ｐゴシック|b0|i0|c128|p50;（株）エニイワイヤ}
 73
     1
 44
1.0
1001
ACAD
1000
MTEXTBEGIN
1070
    73
1070
     1
1070
    44
1040
1.0
1070
    74
1070
     0
1000
MTEXTEND
  0
INSERT
  5
3E9
102
{ACAD_REACTORS
330
3CA
102
}
330
3CB
100
AcDbEntity
  8
レイヤー_1
 62
     7
100
AcDbBlockReference
  2
AI9-BLK1
 10
139.6431220562179
 20
12.30035730331406
 30
0.0
  0
LWPOLYLINE
  5
3EA
102
{ACAD_REACTORS
330
3CA
102
}
330
3CB
100
AcDbEntity
  8
1
  6
Continuous
 62
     0
370
    13
100
AcDbPolyline
 90
        4
 70
     1
 43
0.0
 10
4.5
 20
7.5
 10
285.0
 20
7.5
 10
285.0
 20
202.5
 10
4.5
 20
202.5
  0
LINE
  5
3EB
102
{ACAD_REACTORS
330
3CA
102
}
330
3CB
100
AcDbEntity
  8
0
  6
Continuous
370
    13
100
AcDbLine
 10
207.0
 20
37.5
 30
0.0
 11
207.0
 21
17.5
 31
0.0
  0
MTEXT
  5
3EC
102
{ACAD_REACTORS
330
3CA
102
}
330
3CB
100
AcDbEntity
  8
0
  6
Continuous
370
    13
100
AcDbMText
 10
128.0
 20
36.49999999999999
 30
0.0
 40
2.0
 41
15.0
 71
     1
 72
     5
  1
{\fＭＳ ゴシック|b0|i0|c128|p49;尺度}
 73
     1
 44
1.0
1001
ACAD
1000
MTEXTBEGIN
1070
    73
1070
     1
1070
    44
1040
1.0
1070
    74
1070
     0
1000
MTEXTEND
  0
MTEXT
  5
3ED
102
{ACAD_REACTORS
330
3CA
102
}
330
3CB
100
AcDbEntity
  8
0
  6
Continuous
370
    13
100
AcDbMText
 10
128.0
 20
26.49999999999999
 30
0.0
 40
2.0
 41
0.0
 71
     1
 72
     5
  1
{\fＭＳ ゴシック|b0|i0|c128|p49;図示法}
 73
     1
 44
1.0
1001
ACAD
1000
MTEXTBEGIN
1070
    73
1070
     1
1070
    44
1040
1.0
1070
    74
1070
     0
1000
MTEXTEND
  0
ENDBLK
  5
3EF
330
3CB
100
AcDbEntity
  8
0
100
AcDbBlockEnd
  0
BLOCK
  5
556
330
552
100
AcDbEntity
  8
0
 62
     7
100
AcDbBlockBegin
  2
_Open
 70
     0
 10
0.0
 20
0.0
 30
0.0
  3
_Open
  1

  0
LINE
  5
553
330
552
100
AcDbEntity
  8
0
  6
ByBlock
 62
     0
370
    -2
100
AcDbLine
 10
-1.0
 20
0.1666666666666666
 30
0.0
 11
0.0
 21
0.0
 31
0.0
  0
LINE
  5
554
330
552
100
AcDbEntity
  8
0
  6
ByBlock
 62
     0
370
    -2
100
AcDbLine
 10
-1.0
 20
-0.1666666666666666
 30
0.0
 11
0.0
 21
0.0
 31
0.0
  0
LINE
  5
555
330
552
100
AcDbEntity
  8
0
  6
ByBlock
 62
     0
370
    -2
100
AcDbLine
 10
0.0
 20
0.0
 30
0.0
 11
-1.0
 21
0.0
 31
0.0
  0
ENDBLK
  5
557
330
552
100
AcDbEntity
  8
0
 62
     7
100
AcDbBlockEnd
  0
BLOCK
  5
2B6C
330
2B6B
100
AcDbEntity
  8
0
100
AcDbBlockBegin
  2
*D7
 70
     1
 10
0.0
 20
0.0
 30
0.0
  3
*D7
  1

  0
LINE
  5
2B6E
330
2B6B
100
AcDbEntity
  8
LAYER01
 62
     0
370
    -2
100
AcDbLine
 10
614.1992793059279
 20
566.1974225396241
 30
0.0
 11
614.1992793059279
 21
577.3789383518252
 31
0.0
  0
LINE
  5
2B6F
330
2B6B
100
AcDbEntity
  8
LAYER01
 62
     0
370
    -2
100
AcDbLine
 10
654.8992798434992
 20
566.8599251563931
 30
0.0
 11
654.8992798434992
 21
577.3789383518252
 31
0.0
  0
LINE
  5
2B70
330
2B6B
100
AcDbEntity
  8
LAYER01
 62
     0
370
    -2
100
AcDbLine
 10
616.6992793059279
 20
576.1289383518252
 30
0.0
 11
652.3992798434992
 21
576.1289383518252
 31
0.0
  0
SOLID
  5
2B71
330
2B6B
100
AcDbEntity
  8
LAYER01
 62
     0
100
AcDbTrace
 10
616.6992793059279
 20
576.5456050184918
 30
0.0
 11
616.6992793059279
 21
575.7122716851587
 31
0.0
 12
614.1992793059279
 22
576.1289383518252
 32
0.0
 13
614.1992793059279
 23
576.1289383518252
 33
0.0
  0
SOLID
  5
2B72
330
2B6B
100
AcDbEntity
  8
LAYER01
 62
     0
100
AcDbTrace
 10
652.3992798434992
 20
575.7122716851587
 30
0.0
 11
652.3992798434992
 21
576.5456050184918
 31
0.0
 12
654.8992798434992
 22
576.1289383518252
 32
0.0
 13
654.8992798434992
 23
576.1289383518252
 33
0.0
  0
MTEXT
  5
2B73
330
2B6B
100
AcDbEntity
  8
LAYER01
 62
     0
100
AcDbMText
 10
634.5492795747136
 20
578.2122716851587
 30
0.0
 40
2.5
 41
0.0
 71
     5
 72
     1
  1
40,7
 73
     1
 44
1.0
1001
ACAD
1000
MTEXTBEGIN
1070
    73
1070
     1
1070
    44
1040
1.0
1070
    74
1070
     0
1000
MTEXTEND
  0
POINT
  5
2B74
330
2B6B
100
AcDbEntity
  8
Defpoints
 62
     0
100
AcDbPoint
 10
614.1992793059279
 20
565.5724225396242
 30
0.0
  0
POINT
  5
2B75
330
2B6B
100
AcDbEntity
  8
Defpoints
 62
     0
100
AcDbPoint
 10
654.8992798434992
 20
566.2349251563931
 30
0.0
  0
POINT
  5
2B76
330
2B6B
100
AcDbEntity
  8
Defpoints
 62
     0
100
AcDbPoint
 10
654.8992798434992
 20
576.1289383518252
 30
0.0
  0
ENDBLK
  5
2B6D
330
2B6B
100
AcDbEntity
  8
0
100
AcDbBlockEnd
  0
BLOCK
  5
2B78
330
2B77
100
AcDbEntity
  8
0
100
AcDbBlockBegin
  2
*D8
 70
     1
 10
0.0
 20
0.0
 30
0.0
  3
*D8
  1

  0
LINE
  5
2B7A
330
2B77
100
AcDbEntity
  8
LAYER01
 62
     0
370
    -2
100
AcDbLine
 10
613.9993606059277
 20
569.0224225396242
 30
0.0
 11
605.5297610009363
 21
569.0224225396242
 31
0.0
  0
LINE
  5
2B7B
330
2B77
100
AcDbEntity
  8
LAYER01
 62
     0
370
    -2
100
AcDbLine
 10
613.9993606059277
 20
554.1224225396243
 30
0.0
 11
605.5297610009363
 21
554.1224225396243
 31
0.0
  0
LINE
  5
2B7C
330
2B77
100
AcDbEntity
  8
LAYER01
 62
     0
370
    -2
100
AcDbLine
 10
606.7797610009363
 20
566.5224225396242
 30
0.0
 11
606.7797610009363
 21
556.6224225396243
 31
0.0
  0
SOLID
  5
2B7D
330
2B77
100
AcDbEntity
  8
LAYER01
 62
     0
100
AcDbTrace
 10
607.196427667603
 20
566.5224225396242
 30
0.0
 11
606.3630943342697
 21
566.5224225396242
 31
0.0
 12
606.7797610009363
 22
569.0224225396242
 32
0.0
 13
606.7797610009363
 23
569.0224225396242
 33
0.0
  0
SOLID
  5
2B7E
330
2B77
100
AcDbEntity
  8
LAYER01
 62
     0
100
AcDbTrace
 10
606.3630943342697
 20
556.6224225396243
 30
0.0
 11
607.196427667603
 21
556.6224225396243
 31
0.0
 12
606.7797610009363
 22
554.1224225396243
 32
0.0
 13
606.7797610009363
 23
554.1224225396243
 33
0.0
  0
MTEXT
  5
2B7F
102
{ACAD_XDICTIONARY
360
37F7
102
}
330
2B77
100
AcDbEntity
  8
LAYER01
 62
     0
100
AcDbMText
 10
604.8809872271625
 20
561.5724225396243
 30
0.0
 40
2.5
 41
0.0
 71
     5
 72
     1
  1
\U+03A614.9
 11
0.0
 21
1.0
 31
0.0
 73
     1
 44
1.0
1001
ACAD
1000
MTEXTBEGIN
1070
    73
1070
     1
1070
    44
1040
1.0
1070
    74
1070
     0
1000
MTEXTEND
  0
POINT
  5
2B80
330
2B77
100
AcDbEntity
  8
Defpoints
 62
     0
100
AcDbPoint
 10
614.9993606059279
 20
569.0224225396242
 30
0.0
  0
POINT
  5
2B81
330
2B77
100
AcDbEntity
  8
Defpoints
 62
     0
100
AcDbPoint
 10
614.9993606059279
 20
554.1224225396243
 30
0.0
  0
POINT
  5
2B82
330
2B77
100
AcDbEntity
  8
Defpoints
 62
     0
100
AcDbPoint
 10
606.7797610009363
 20
554.1224225396243
 30
0.0
  0
ENDBLK
  5
2B79
330
2B77
100
AcDbEntity
  8
0
100
AcDbBlockEnd
  0
BLOCK
  5
34F9
330
34F8
100
AcDbEntity
  8
0
100
AcDbBlockBegin
  2
*D9
 70
     1
 10
0.0
 20
0.0
 30
0.0
  3
*D9
  1

  0
LINE
  5
34FB
330
34F8
100
AcDbEntity
  8
LAYER01
 62
     0
370
    -2
100
AcDbLine
 10
614.1992762810708
 20
565.8008391839185
 30
0.0
 11
614.1992762810708
 21
585.0270752194766
 31
0.0
  0
LINE
  5
34FC
330
34F8
100
AcDbEntity
  8
LAYER01
 62
     0
370
    -2
100
AcDbLine
 10
759.4835323540821
 20
566.2999251839186
 30
0.0
 11
759.4835323540821
 21
585.0270752194766
 31
0.0
  0
LINE
  5
34FD
330
34F8
100
AcDbEntity
  8
LAYER01
 62
     0
370
    -2
100
AcDbLine
 10
616.6992762810707
 20
583.7770752194767
 30
0.0
 11
756.9835323540822
 21
583.7770752194767
 31
0.0
  0
SOLID
  5
34FE
330
34F8
100
AcDbEntity
  8
LAYER01
 62
     0
100
AcDbTrace
 10
616.6992762810707
 20
584.1937418861432
 30
0.0
 11
616.6992762810707
 21
583.3604085528101
 31
0.0
 12
614.1992762810708
 22
583.7770752194767
 32
0.0
 13
614.1992762810708
 23
583.7770752194767
 33
0.0
  0
SOLID
  5
34FF
330
34F8
100
AcDbEntity
  8
LAYER01
 62
     0
100
AcDbTrace
 10
756.9835323540822
 20
583.3604085528101
 30
0.0
 11
756.9835323540822
 21
584.1937418861432
 31
0.0
 12
759.4835323540821
 22
583.7770752194767
 32
0.0
 13
759.4835323540821
 23
583.7770752194767
 33
0.0
  0
MTEXT
  5
3500
330
34F8
100
AcDbEntity
  8
LAYER01
 62
     0
100
AcDbMText
 10
686.8414043175763
 20
585.6520752194767
 30
0.0
 40
2.5
 41
0.0
 71
     5
 72
     1
  1
3000
 73
     1
 44
1.0
1001
ACAD
1000
MTEXTBEGIN
1070
    73
1070
     1
1070
    44
1040
1.0
1070
    74
1070
     0
1000
MTEXTEND
  0
POINT
  5
3501
330
34F8
100
AcDbEntity
  8
Defpoints
 62
     0
100
AcDbPoint
 10
614.1992762810708
 20
565.1758391839186
 30
0.0
  0
POINT
  5
3502
330
34F8
100
AcDbEntity
  8
Defpoints
 62
     0
100
AcDbPoint
 10
759.4835323540821
 20
565.6749251839186
 30
0.0
  0
POINT
  5
3503
330
34F8
100
AcDbEntity
  8
Defpoints
 62
     0
100
AcDbPoint
 10
759.4835323540821
 20
583.7770752194767
 30
0.0
  0
ENDBLK
  5
34FA
330
34F8
100
AcDbEntity
  8
0
100
AcDbBlockEnd
  0
BLOCK
  5
35E2
330
35E1
100
AcDbEntity
  8
0
100
AcDbBlockBegin
  2
*D10
 70
     1
 10
0.0
 20
0.0
 30
0.0
  3
*D10
  1

  0
LINE
  5
35E4
330
35E1
100
AcDbEntity
  8
LAYER01
 62
     0
370
    -2
100
AcDbLine
 10
789.483532354082
 20
569.3399251839183
 30
0.0
 11
789.483532354082
 21
578.4335002016976
 31
0.0
  0
LINE
  5
35E5
330
35E1
100
AcDbEntity
  8
LAYER01
 62
     0
370
    -2
100
AcDbLine
 10
759.4835323540821
 20
566.2999251839186
 30
0.0
 11
759.4835323540821
 21
578.4335002016976
 31
0.0
  0
LINE
  5
35E6
330
35E1
100
AcDbEntity
  8
LAYER01
 62
     0
370
    -2
100
AcDbLine
 10
786.983532354082
 20
577.1835002016976
 30
0.0
 11
761.9835323540821
 21
577.1835002016976
 31
0.0
  0
SOLID
  5
35E7
330
35E1
100
AcDbEntity
  8
LAYER01
 62
     0
100
AcDbTrace
 10
786.983532354082
 20
576.7668335350308
 30
0.0
 11
786.983532354082
 21
577.6001668683642
 31
0.0
 12
789.483532354082
 22
577.1835002016976
 32
0.0
 13
789.483532354082
 23
577.1835002016976
 33
0.0
  0
SOLID
  5
35E8
330
35E1
100
AcDbEntity
  8
LAYER01
 62
     0
100
AcDbTrace
 10
761.9835323540821
 20
577.6001668683642
 30
0.0
 11
761.9835323540821
 21
576.7668335350308
 31
0.0
 12
759.4835323540821
 22
577.1835002016976
 32
0.0
 13
759.4835323540821
 23
577.1835002016976
 33
0.0
  0
MTEXT
  5
35E9
330
35E1
100
AcDbEntity
  8
LAYER01
 62
     0
100
AcDbMText
 10
774.4835323540821
 20
579.0585002016976
 30
0.0
 40
2.5
 41
0.0
 71
     5
 72
     1
  1
30%%p5
 73
     1
 44
1.0
1001
ACAD
1000
MTEXTBEGIN
1070
    73
1070
     1
1070
    44
1040
1.0
1070
    74
1070
     0
1000
MTEXTEND
  0
POINT
  5
35EA
330
35E1
100
AcDbEntity
  8
Defpoints
 62
     0
100
AcDbPoint
 10
789.483532354082
 20
568.7149251839183
 30
0.0
  0
POINT
  5
35EB
330
35E1
100
AcDbEntity
  8
Defpoints
 62
     0
100
AcDbPoint
 10
759.4835323540821
 20
565.6749251839186
 30
0.0
  0
POINT
  5
35EC
330
35E1
100
AcDbEntity
  8
Defpoints
 62
     0
100
AcDbPoint
 10
759.4835323540821
 20
577.1835002016976
 30
0.0
  0
ENDBLK
  5
35E3
330
35E1
100
AcDbEntity
  8
0
100
AcDbBlockEnd
  0
BLOCK
  5
35FB
330
35FA
100
AcDbEntity
  8
0
100
AcDbBlockBegin
  2
*D11
 70
     1
 10
0.0
 20
0.0
 30
0.0
  3
*D11
  1

  0
LINE
  5
35FD
330
35FA
100
AcDbEntity
  8
LAYER01
 62
     0
370
    -2
100
AcDbLine
 10
759.4835323540821
 20
566.2999251839186
 30
0.0
 11
759.4835323540821
 21
585.0270752194766
 31
0.0
  0
LINE
  5
35FE
330
35FA
100
AcDbEntity
  8
LAYER01
 62
     0
370
    -2
100
AcDbLine
 10
809.483532354082
 20
569.3399251839183
 30
0.0
 11
809.483532354082
 21
585.0270752194766
 31
0.0
  0
LINE
  5
35FF
330
35FA
100
AcDbEntity
  8
LAYER01
 62
     0
370
    -2
100
AcDbLine
 10
761.9835323540821
 20
583.7770752194767
 30
0.0
 11
806.983532354082
 21
583.7770752194767
 31
0.0
  0
SOLID
  5
3600
330
35FA
100
AcDbEntity
  8
LAYER01
 62
     0
100
AcDbTrace
 10
761.9835323540821
 20
584.1937418861432
 30
0.0
 11
761.9835323540821
 21
583.3604085528101
 31
0.0
 12
759.4835323540821
 22
583.7770752194767
 32
0.0
 13
759.4835323540821
 23
583.7770752194767
 33
0.0
  0
SOLID
  5
3601
330
35FA
100
AcDbEntity
  8
LAYER01
 62
     0
100
AcDbTrace
 10
806.983532354082
 20
583.3604085528101
 30
0.0
 11
806.983532354082
 21
584.1937418861432
 31
0.0
 12
809.483532354082
 22
583.7770752194767
 32
0.0
 13
809.483532354082
 23
583.7770752194767
 33
0.0
  0
MTEXT
  5
3602
330
35FA
100
AcDbEntity
  8
LAYER01
 62
     0
100
AcDbMText
 10
784.4835323540821
 20
587.3187418861432
 30
0.0
 40
2.5
 41
0.0
 71
     5
 72
     1
  1
50\S+20^ -10;
 73
     1
 44
1.0
1001
ACAD
1000
MTEXTBEGIN
1070
    73
1070
     1
1070
    44
1040
1.0
1070
    74
1070
     0
1000
MTEXTEND
  0
POINT
  5
3603
330
35FA
100
AcDbEntity
  8
Defpoints
 62
     0
100
AcDbPoint
 10
759.4835323540821
 20
565.6749251839186
 30
0.0
  0
POINT
  5
3604
330
35FA
100
AcDbEntity
  8
Defpoints
 62
     0
100
AcDbPoint
 10
809.483532354082
 20
568.7149251839183
 30
0.0
  0
POINT
  5
3605
330
35FA
100
AcDbEntity
  8
Defpoints
 62
     0
100
AcDbPoint
 10
809.483532354082
 20
583.7770752194767
 30
0.0
  0
ENDBLK
  5
35FC
330
35FA
100
AcDbEntity
  8
0
100
AcDbBlockEnd
  0
BLOCK
  5
3703
330
3702
100
AcDbEntity
  8
0
100
AcDbBlockBegin
  2
*D12
 70
     1
 10
0.0
 20
0.0
 30
0.0
  3
*D12
  1

  0
LINE
  5
3705
330
3702
100
AcDbEntity
  8
LAYER01
 62
     0
370
    -2
100
AcDbLine
 10
794.4835323540822
 20
569.3399251839183
 30
0.0
 11
794.4835323540822
 21
578.4335002016976
 31
0.0
  0
LINE
  5
3706
330
3702
100
AcDbEntity
  8
LAYER01
 62
     0
370
    -2
100
AcDbLine
 10
789.483532354082
 20
569.3399251839183
 30
0.0
 11
789.483532354082
 21
578.4335002016976
 31
0.0
  0
LINE
  5
3707
330
3702
100
AcDbEntity
  8
LAYER01
 62
     0
370
    -2
100
AcDbLine
 10
794.4835323540822
 20
577.1835002016976
 30
0.0
 11
789.483532354082
 21
577.1835002016976
 31
0.0
  0
LINE
  5
3708
330
3702
100
AcDbEntity
  8
LAYER01
 62
     0
370
    -2
100
AcDbLine
 10
796.983532354082
 20
577.1835002016976
 30
0.0
 11
799.483532354082
 21
577.1835002016976
 31
0.0
  0
LINE
  5
3709
330
3702
100
AcDbEntity
  8
LAYER01
 62
     0
370
    -2
100
AcDbLine
 10
786.983532354082
 20
577.1835002016976
 30
0.0
 11
784.483532354082
 21
577.1835002016976
 31
0.0
  0
SOLID
  5
370A
330
3702
100
AcDbEntity
  8
LAYER01
 62
     0
100
AcDbTrace
 10
796.983532354082
 20
577.6001668683642
 30
0.0
 11
796.983532354082
 21
576.7668335350308
 31
0.0
 12
794.4835323540822
 22
577.1835002016976
 32
0.0
 13
794.4835323540822
 23
577.1835002016976
 33
0.0
  0
SOLID
  5
370B
330
3702
100
AcDbEntity
  8
LAYER01
 62
     0
100
AcDbTrace
 10
786.983532354082
 20
576.7668335350308
 30
0.0
 11
786.983532354082
 21
577.6001668683642
 31
0.0
 12
789.483532354082
 22
577.1835002016976
 32
0.0
 13
789.483532354082
 23
577.1835002016976
 33
0.0
  0
MTEXT
  5
370C
330
3702
100
AcDbEntity
  8
LAYER01
 62
     0
100
AcDbMText
 10
792.2835323540822
 20
580.4335002016975
 30
0.0
 40
2.5
 41
0.0
 71
     5
 72
     1
  1
5%%p3
 73
     1
 44
1.0
1001
ACAD
1000
MTEXTBEGIN
1070
    73
1070
     1
1070
    44
1040
1.0
1070
    74
1070
     0
1000
MTEXTEND
  0
POINT
  5
370D
330
3702
100
AcDbEntity
  8
Defpoints
 62
     0
100
AcDbPoint
 10
794.4835323540822
 20
568.7149251839183
 30
0.0
  0
POINT
  5
370E
330
3702
100
AcDbEntity
  8
Defpoints
 62
     0
100
AcDbPoint
 10
789.483532354082
 20
568.7149251839183
 30
0.0
  0
POINT
  5
370F
330
3702
100
AcDbEntity
  8
Defpoints
 62
     0
100
AcDbPoint
 10
789.483532354082
 20
577.1835002016976
 30
0.0
  0
ENDBLK
  5
3704
330
3702
100
AcDbEntity
  8
0
100
AcDbBlockEnd
  0
ENDSEC
  0
SECTION
  2
ENTITIES
  0
MTEXT
  5
2733
330
1F
100
AcDbEntity
  8
0
100
AcDbMText
 10
697.1538941228427
 20
582.0656436951582
 30
0.0
 40
3.0
 41
22.28616656892211
 71
     4
 72
     5
  1

 73
     1
 44
1.0
1001
ACAD
1000
MTEXTBEGIN
1070
    73
1070
     1
1070
    44
1040
1.0
1070
    74
1070
     0
1000
MTEXTEND
1000
ACAD_MTEXT_DEFINED_HEIGHT_BEGIN
1070
    46
1040
8.0
1000
ACAD_MTEXT_DEFINED_HEIGHT_END
  0
DIMENSION
  5
29B4
330
1F
100
AcDbEntity
  8
LAYER01
100
AcDbDimension
  2
*D7
 10
654.8992798434992
 20
576.1289383518252
 30
0.0
 11
634.5492795747136
 21
576.1289383518252
 31
0.0
 70
   160
 71
     5
 42
40.70000053757121
  3
ISO-25
100
AcDbAlignedDimension
 13
614.1992793059279
 23
565.5724225396242
 33
0.0
 14
654.8992798434992
 24
566.2349251563931
 34
0.0
100
AcDbRotatedDimension
  0
DIMENSION
  5
29C9
330
1F
100
AcDbEntity
  8
LAYER01
100
AcDbDimension
  2
*D8
 10
606.7797610009363
 20
554.1224225396243
 30
0.0
 11
604.8809872271625
 21
561.5724225396243
 31
0.0
 70
    33
  1
\U+03A614.9
 71
     5
 42
14.89999999999986
  3
ISO-25
100
AcDbAlignedDimension
 13
614.9993606059279
 23
569.0224225396242
 33
0.0
 14
614.9993606059279
 24
554.1224225396243
 34
0.0
1001
ACAD
1000
DSTYLE
1002
{
1070
    42
1040
1.0
1070
   340
1005
11
1002
}
  0
CIRCLE
  5
29CA
330
1F
100
AcDbEntity
  8
Z_OM_OUTLINE
100
AcDbCircle
 10
587.6269269565154
 20
563.3426522839186
 30
0.0
 40
0.7999991999999999
  0
CIRCLE
  5
29CB
330
1F
100
AcDbEntity
  8
Z_OM_OUTLINE
100
AcDbCircle
 10
587.6269269565154
 20
559.8071181839186
 30
0.0
 40
0.7999991999999999
  0
CIRCLE
  5
29CC
330
1F
100
AcDbEntity
  8
Z_OM_OUTLINE
100
AcDbCircle
 10
584.0914350565157
 20
563.3426522839186
 30
0.0
 40
0.7999991999999999
  0
CIRCLE
  5
29CD
330
1F
100
AcDbEntity
  8
Z_OM_OUTLINE
100
AcDbCircle
 10
584.0914350565157
 20
559.8070962839186
 30
0.0
 40
0.7999991999999999
  0
ARC
  5
29CE
330
1F
100
AcDbEntity
  8
Z_OM_OUTLINE
100
AcDbCircle
 10
585.8592267565154
 20
561.5748852839186
 30
0.0
 40
4.000001899999999
100
AcDbArc
 50
104.8775023999987
 51
314.9995117000007
  0
ARC
  5
29CF
330
1F
100
AcDbEntity
  8
Z_OM_OUTLINE
100
AcDbCircle
 10
585.8592354869885
 20
565.1253546785117
 30
0.0
 40
0.6504888509301474
100
AcDbArc
 50
177.7569272220042
 51
2.242984854136504
  0
CIRCLE
  5
29D0
330
1F
100
AcDbEntity
  8
Z_OM_OUTLINE
100
AcDbCircle
 10
587.6269269565154
 20
559.8071181839186
 30
0.0
 40
0.5499997
  0
CIRCLE
  5
29D1
330
1F
100
AcDbEntity
  8
Z_OM_OUTLINE
100
AcDbCircle
 10
587.6269269565154
 20
563.3426522839186
 30
0.0
 40
0.5499997
  0
CIRCLE
  5
29D2
330
1F
100
AcDbEntity
  8
Z_OM_OUTLINE
100
AcDbCircle
 10
584.0914350565157
 20
563.3426522839186
 30
0.0
 40
0.5499997
  0
ARC
  5
29D3
330
1F
100
AcDbEntity
  8
Z_OM_OUTLINE
100
AcDbCircle
 10
586.8092237565156
 20
565.1508162839186
 30
0.0
 40
0.2999978
100
AcDbArc
 50
75.12023929999542
 51
180.0005951000071
  0
ARC
  5
29D4
330
1F
100
AcDbEntity
  8
Z_OM_OUTLINE
100
AcDbCircle
 10
584.9092298565157
 20
565.1508152839186
 30
0.0
 40
0.3000152
100
AcDbArc
 50
359.9997864000068
 51
104.8761977999933
  0
CIRCLE
  5
29D5
330
1F
100
AcDbEntity
  8
Z_OM_OUTLINE
100
AcDbCircle
 10
584.0914350565157
 20
559.8070962839186
 30
0.0
 40
0.5499997
  0
ARC
  5
29D6
330
1F
100
AcDbEntity
  8
Z_OM_OUTLINE
100
AcDbCircle
 10
585.8592267565154
 20
561.5748852839186
 30
0.0
 40
4.0
100
AcDbArc
 50
314.9997864000005
 51
75.12210079999942
  0
LINE
  5
29D7
330
1F
100
AcDbEntity
  8
Z_OM_OUTLINE
100
AcDbLine
 10
628.1991694810708
 20
568.3749120839186
 30
0.0
 11
627.8991664810708
 21
568.0749251839186
 31
0.0
  0
LINE
  5
29D8
330
1F
100
AcDbEntity
  8
Z_OM_OUTLINE
100
AcDbLine
 10
627.8992732810707
 20
568.0749251839186
 30
0.0
 11
627.8992732810707
 21
555.0749552839184
 31
0.0
  0
LINE
  5
29D9
330
1F
100
AcDbEntity
  8
Z_OM_OUTLINE
100
AcDbLine
 10
627.8991664810708
 20
555.0749552839184
 30
0.0
 11
628.1991694810708
 21
554.7749373839185
 31
0.0
  0
LINE
  5
29DA
330
1F
100
AcDbEntity
  8
Z_OM_OUTLINE
100
AcDbLine
 10
628.1992762810707
 20
555.2249491839186
 30
0.0
 11
633.3992732810708
 21
555.2249491839186
 31
0.0
  0
LINE
  5
29DB
330
1F
100
AcDbEntity
  8
Z_OM_OUTLINE
100
AcDbLine
 10
628.1992762810707
 20
556.4049422839185
 30
0.0
 11
633.3992732810708
 21
556.4049422839185
 31
0.0
  0
LINE
  5
29DC
330
1F
100
AcDbEntity
  8
Z_OM_OUTLINE
100
AcDbLine
 10
628.1992762810707
 20
557.5849342839186
 30
0.0
 11
633.3992732810708
 21
557.5849342839186
 31
0.0
  0
LINE
  5
29DD
330
1F
100
AcDbEntity
  8
Z_OM_OUTLINE
100
AcDbLine
 10
633.3992732810708
 20
554.7749373839185
 30
0.0
 11
628.1991694810708
 21
554.7749373839185
 31
0.0
  0
LINE
  5
29DE
330
1F
100
AcDbEntity
  8
Z_OM_OUTLINE
100
AcDbLine
 10
628.1992762810707
 20
561.1249125839187
 30
0.0
 11
633.3992732810708
 21
561.1249125839187
 31
0.0
  0
LINE
  5
29DF
330
1F
100
AcDbEntity
  8
Z_OM_OUTLINE
100
AcDbLine
 10
628.1992762810707
 20
559.9449201839186
 30
0.0
 11
633.3992732810708
 21
559.9449201839186
 31
0.0
  0
LINE
  5
29E0
330
1F
100
AcDbEntity
  8
Z_OM_OUTLINE
100
AcDbLine
 10
628.1992762810707
 20
558.7649271839186
 30
0.0
 11
633.3992732810708
 21
558.7649271839186
 31
0.0
  0
LINE
  5
29E1
330
1F
100
AcDbEntity
  8
Z_OM_OUTLINE
100
AcDbLine
 10
636.3992732810707
 20
567.2749373839186
 30
0.0
 11
643.3992732810708
 21
567.2749373839186
 31
0.0
  0
LINE
  5
29E2
330
1F
100
AcDbEntity
  8
Z_OM_OUTLINE
100
AcDbLine
 10
627.8991664810708
 20
555.0749862839186
 30
0.0
 11
628.1991694810708
 21
554.7749984839185
 31
0.0
  0
LINE
  5
29E3
330
1F
100
AcDbEntity
  8
Z_OM_OUTLINE
100
AcDbLine
 10
643.3992732810708
 20
566.7749373839186
 30
0.0
 11
644.3992732810707
 21
566.7749373839186
 31
0.0
  0
LINE
  5
29E4
330
1F
100
AcDbEntity
  8
Z_OM_OUTLINE
100
AcDbLine
 10
652.3991664810708
 20
561.5748941839187
 30
0.0
 11
652.3991664810708
 21
557.0987284839186
 31
0.0
  0
LINE
  5
29E5
330
1F
100
AcDbEntity
  8
Z_OM_OUTLINE
100
AcDbLine
 10
649.3991664810708
 20
561.5748941839187
 30
0.0
 11
649.3991664810708
 21
556.8273050839186
 31
0.0
  0
LINE
  5
29E6
330
1F
100
AcDbEntity
  8
Z_OM_OUTLINE
100
AcDbLine
 10
653.3991664810708
 20
561.5748941839187
 30
0.0
 11
653.3991664810708
 21
557.1892130839186
 31
0.0
  0
LINE
  5
29E7
330
1F
100
AcDbEntity
  8
Z_OM_OUTLINE
100
AcDbLine
 10
653.3991664810708
 20
558.5748632839186
 30
0.0
 11
652.3991664810708
 21
558.5748632839186
 31
0.0
  0
LINE
  5
29E8
330
1F
100
AcDbEntity
  8
Z_OM_OUTLINE
100
AcDbLine
 10
649.3991664810708
 20
557.5748632839186
 30
0.0
 11
648.3991664810708
 21
557.5748632839186
 31
0.0
  0
LINE
  5
29E9
330
1F
100
AcDbEntity
  8
Z_OM_OUTLINE
100
AcDbLine
 10
646.3991664810707
 20
566.5939982839184
 30
0.0
 11
646.3991664810707
 21
561.5748941839187
 31
0.0
  0
LINE
  5
29EA
330
1F
100
AcDbEntity
  8
Z_OM_OUTLINE
100
AcDbLine
 10
647.3991664810707
 20
566.5035131839186
 30
0.0
 11
647.3991664810707
 21
561.5748941839187
 31
0.0
  0
LINE
  5
29EB
330
1F
100
AcDbEntity
  8
Z_OM_OUTLINE
100
AcDbLine
 10
646.3991664810707
 20
565.5748941839187
 30
0.0
 11
647.3991664810707
 21
565.5748941839187
 31
0.0
  0
LINE
  5
29EC
330
1F
100
AcDbEntity
  8
Z_OM_OUTLINE
100
AcDbLine
 10
648.3991664810708
 20
561.5748941839187
 30
0.0
 11
648.3991664810708
 21
556.7368509839186
 31
0.0
  0
LINE
  5
29ED
330
1F
100
AcDbEntity
  8
Z_OM_OUTLINE
100
AcDbLine
 10
650.3991664810707
 20
564.5748941839185
 30
0.0
 11
651.3991664810707
 21
564.5748941839185
 31
0.0
  0
LINE
  5
29EE
330
1F
100
AcDbEntity
  8
Z_OM_OUTLINE
100
AcDbLine
 10
651.3991664810707
 20
566.1416051839186
 30
0.0
 11
651.3991664810707
 21
561.5748941839187
 31
0.0
  0
LINE
  5
29EF
330
1F
100
AcDbEntity
  8
Z_OM_OUTLINE
100
AcDbLine
 10
650.3991664810707
 20
566.2320902839186
 30
0.0
 11
650.3991664810707
 21
561.5748941839187
 31
0.0
  0
LINE
  5
29F0
330
1F
100
AcDbEntity
  8
Z_OM_OUTLINE
100
AcDbLine
 10
628.1991694810708
 20
568.3749120839186
 30
0.0
 11
627.8991664810708
 21
568.0749251839186
 31
0.0
  0
LINE
  5
29F1
330
1F
100
AcDbEntity
  8
Z_OM_OUTLINE
100
AcDbLine
 10
628.1991694810708
 20
568.3749730839187
 30
0.0
 11
640.3992732810707
 21
568.3749730839187
 31
0.0
  0
LINE
  5
29F2
330
1F
100
AcDbEntity
  8
Z_OM_OUTLINE
100
AcDbLine
 10
636.3992732810707
 20
567.2749373839186
 30
0.0
 11
636.3992732810707
 21
555.8749430839186
 31
0.0
  0
LINE
  5
29F3
330
1F
100
AcDbEntity
  8
Z_OM_OUTLINE
100
AcDbLine
 10
636.3992732810707
 20
567.2749373839186
 30
0.0
 11
633.3992732810708
 21
568.3749730839187
 31
0.0
  0
LINE
  5
29F4
330
1F
100
AcDbEntity
  8
Z_OM_OUTLINE
100
AcDbLine
 10
643.3992732810708
 20
567.2749373839186
 30
0.0
 11
643.3992732810708
 21
555.8749430839186
 31
0.0
  0
LINE
  5
29F5
330
1F
100
AcDbEntity
  8
Z_OM_OUTLINE
100
AcDbLine
 10
636.3992732810707
 20
555.8749430839186
 30
0.0
 11
633.3992732810708
 21
554.7749373839185
 31
0.0
  0
LINE
  5
29F6
330
1F
100
AcDbEntity
  8
Z_OM_OUTLINE
100
AcDbLine
 10
636.3992732810707
 20
555.8749430839186
 30
0.0
 11
643.3992732810708
 21
555.8749430839186
 31
0.0
  0
LINE
  5
29F7
330
1F
100
AcDbEntity
  8
Z_OM_OUTLINE
100
AcDbLine
 10
643.3992732810708
 20
556.3749430839187
 30
0.0
 11
644.3992732810707
 21
556.3749430839187
 31
0.0
  0
POINT
  5
29F8
330
1F
100
AcDbEntity
  8
Z_OM_OUTLINE
100
AcDbPoint
 10
631.8992732810707
 20
557.5595743839186
 30
0.0
  0
CIRCLE
  5
29F9
330
1F
100
AcDbEntity
  8
Z_OM_OUTLINE
100
AcDbCircle
 10
639.8992732810707
 20
561.5749247839186
 30
0.0
 40
2.999906999999998
  0
ARC
  5
29FA
330
1F
100
AcDbEntity
  8
Z_OM_OUTLINE
100
AcDbCircle
 10
646.8991664810707
 20
561.5749247839186
 30
0.0
 40
0.5
100
AcDbArc
 50
180.0
 51
0.0
  0
ARC
  5
29FB
330
1F
100
AcDbEntity
  8
Z_OM_OUTLINE
100
AcDbCircle
 10
648.8991664810708
 20
561.5748941839187
 30
0.0
 40
0.5
100
AcDbArc
 50
0.0
 51
180.0
  0
ARC
  5
29FC
330
1F
100
AcDbEntity
  8
Z_OM_OUTLINE
100
AcDbCircle
 10
650.8991664810707
 20
561.5749247839186
 30
0.0
 40
0.5000038
100
AcDbArc
 50
180.0
 51
0.0
  0
ARC
  5
29FD
330
1F
100
AcDbEntity
  8
Z_OM_OUTLINE
100
AcDbCircle
 10
652.8991664810708
 20
561.5748941839187
 30
0.0
 40
0.5
100
AcDbArc
 50
0.0
 51
180.0
  0
LINE
  5
29FE
330
1F
100
AcDbEntity
  8
Z_OM_OUTLINE
100
AcDbLine
 10
654.8992793810707
 20
565.8249251839186
 30
0.0
 11
647.3991664810707
 21
566.5035131839186
 31
0.0
  0
LINE
  5
29FF
330
1F
100
AcDbEntity
  8
Z_OM_OUTLINE
100
AcDbLine
 10
647.3991664810707
 20
566.5035131839186
 30
0.0
 11
644.3992732810706
 21
566.7749373839185
 31
0.0
  0
LINE
  5
2A00
330
1F
100
AcDbEntity
  8
Z_OM_OUTLINE
100
AcDbLine
 10
649.3991664810708
 20
556.8273050839186
 30
0.0
 11
644.3992732810706
 21
556.3749430839185
 31
0.0
  0
LINE
  5
2A01
330
1F
100
AcDbEntity
  8
Z_OM_OUTLINE
100
AcDbLine
 10
644.3992732810707
 20
566.7749373839186
 30
0.0
 11
644.3992732810707
 21
556.3749430839187
 31
0.0
  0
LINE
  5
2A02
330
1F
100
AcDbEntity
  8
Z_OM_OUTLINE
100
AcDbLine
 10
643.3992732810708
 20
567.2749373839186
 30
0.0
 11
640.3992732810707
 21
568.3749730839187
 31
0.0
  0
LINE
  5
2A03
330
1F
100
AcDbEntity
  8
Z_OM_OUTLINE
100
AcDbLine
 10
628.1992762810707
 20
567.9249003839186
 30
0.0
 11
633.3992732810708
 21
567.9249003839186
 31
0.0
  0
LINE
  5
2A04
330
1F
100
AcDbEntity
  8
Z_OM_OUTLINE
100
AcDbLine
 10
628.1992762810707
 20
566.7449071839184
 30
0.0
 11
633.3992732810708
 21
566.7449071839184
 31
0.0
  0
LINE
  5
2A05
330
1F
100
AcDbEntity
  8
Z_OM_OUTLINE
100
AcDbLine
 10
628.1992762810707
 20
565.5649151839186
 30
0.0
 11
633.3992732810708
 21
565.5649151839186
 31
0.0
  0
LINE
  5
2A06
330
1F
100
AcDbEntity
  8
Z_OM_OUTLINE
100
AcDbLine
 10
628.1992762810707
 20
562.0249368839186
 30
0.0
 11
633.3992732810708
 21
562.0249368839186
 31
0.0
  0
LINE
  5
2A07
330
1F
100
AcDbEntity
  8
Z_OM_OUTLINE
100
AcDbLine
 10
628.1992762810707
 20
563.2049292839186
 30
0.0
 11
633.3992732810708
 21
563.2049292839186
 31
0.0
  0
LINE
  5
2A08
330
1F
100
AcDbEntity
  8
Z_OM_OUTLINE
100
AcDbLine
 10
628.1992762810707
 20
564.3849222839186
 30
0.0
 11
633.3992732810708
 21
564.3849222839186
 31
0.0
  0
LINE
  5
2A09
330
1F
100
AcDbEntity
  8
Z_OM_OUTLINE
100
AcDbLine
 10
628.1992762810707
 20
568.3749120839186
 30
0.0
 11
628.1992762810707
 21
554.7749373839185
 31
0.0
  0
LINE
  5
2A0A
330
1F
100
AcDbEntity
  8
Z_OM_OUTLINE
100
AcDbLine
 10
633.3992732810708
 20
554.7749373839185
 30
0.0
 11
633.3992732810708
 21
568.3749120839186
 31
0.0
  0
POINT
  5
2A0B
330
1F
100
AcDbEntity
  8
Z_OM_OUTLINE
100
AcDbPoint
 10
631.8992732810707
 20
565.5902750839186
 30
0.0
  0
LINE
  5
2A0C
330
1F
100
AcDbEntity
  8
Z_OM_OUTLINE
100
AcDbLine
 10
654.8992793810707
 20
557.3249251839184
 30
0.0
 11
654.8992793810707
 21
565.8249251839186
 31
0.0
  0
LINE
  5
2A0D
330
1F
100
AcDbEntity
  8
Z_OM_OUTLINE
100
AcDbLine
 10
614.6992762810707
 20
554.9111373839187
 30
0.0
 11
614.6992762810707
 21
554.6934363839186
 31
0.0
  0
ARC
  5
2A0E
330
1F
100
AcDbEntity
  8
Z_OM_OUTLINE
100
AcDbCircle
 10
615.6061671810707
 20
555.2692382839186
 30
0.0
 40
1.074241
100
AcDbArc
 50
212.4138031000001
 51
228.6551971000001
  0
ARC
  5
2A0F
330
1F
100
AcDbEntity
  8
Z_OM_OUTLINE
100
AcDbCircle
 10
614.4135707810708
 20
553.8370363839185
 30
0.0
 40
0.7904498000000002
100
AcDbArc
 50
29.82720950000469
 51
52.33691019999749
  0
LINE
  5
2A10
330
1F
100
AcDbEntity
  8
Z_OM_OUTLINE
100
AcDbLine
 10
624.8992732810708
 20
561.3944360839187
 30
0.0
 11
615.0992701810707
 21
561.3944360839187
 31
0.0
  0
LINE
  5
2A11
330
1F
100
AcDbEntity
  8
Z_OM_OUTLINE
100
AcDbLine
 10
625.7992671810708
 20
561.5999491839186
 30
0.0
 11
625.7992671810708
 21
554.6499373839185
 31
0.0
  0
LINE
  5
2A12
330
1F
100
AcDbEntity
  8
Z_OM_OUTLINE
100
AcDbLine
 10
625.7992671810708
 20
568.5499379839186
 30
0.0
 11
625.7992671810708
 21
561.5999491839186
 31
0.0
  0
LINE
  5
2A13
330
1F
100
AcDbEntity
  8
Z_OM_OUTLINE
100
AcDbLine
 10
624.8992732810708
 20
554.1249247839187
 30
0.0
 11
624.8992732810708
 21
555.0477492839186
 31
0.0
  0
LINE
  5
2A14
330
1F
100
AcDbEntity
  8
Z_OM_OUTLINE
100
AcDbLine
 10
624.8996699810708
 20
555.0521361839185
 30
0.0
 11
624.8992732810708
 21
555.0477492839186
 31
0.0
  0
LINE
  5
2A15
330
1F
100
AcDbEntity
  8
Z_OM_OUTLINE
100
AcDbLine
 10
625.6192744810707
 20
555.5940363839185
 30
0.0
 11
625.6192744810707
 21
556.0763361839185
 31
0.0
  0
LINE
  5
2A16
330
1F
100
AcDbEntity
  8
Z_OM_OUTLINE
100
AcDbLine
 10
624.8992732810708
 20
556.0271451839184
 30
0.0
 11
624.8992732810708
 21
556.6555373839186
 31
0.0
  0
LINE
  5
2A17
330
1F
100
AcDbEntity
  8
Z_OM_OUTLINE
100
AcDbLine
 10
625.6192744810707
 20
557.2189371839185
 30
0.0
 11
625.6192744810707
 21
557.9078481839186
 31
0.0
  0
LINE
  5
2A18
330
1F
100
AcDbEntity
  8
Z_OM_OUTLINE
100
AcDbLine
 10
624.8992732810708
 20
558.0543482839185
 30
0.0
 11
624.8992732810708
 21
558.8597371839186
 31
0.0
  0
LINE
  5
2A19
330
1F
100
AcDbEntity
  8
Z_OM_OUTLINE
100
AcDbLine
 10
625.6192744810707
 20
559.3723492839187
 30
0.0
 11
625.6192744810707
 21
560.1846392839186
 31
0.0
  0
LINE
  5
2A1A
330
1F
100
AcDbEntity
  8
Z_OM_OUTLINE
100
AcDbLine
 10
624.8992732810708
 20
560.5091362839186
 30
0.0
 11
624.8992732810708
 21
561.3944360839187
 31
0.0
  0
LINE
  5
2A1B
330
1F
100
AcDbEntity
  8
Z_OM_OUTLINE
100
AcDbLine
 10
625.6192744810707
 20
561.7944376839187
 30
0.0
 11
625.6192744810707
 21
562.6321371839186
 31
0.0
  0
LINE
  5
2A1C
330
1F
100
AcDbEntity
  8
Z_OM_OUTLINE
100
AcDbLine
 10
624.8992732810708
 20
563.0955392839186
 30
0.0
 11
624.8992732810708
 21
563.9538381839185
 31
0.0
  0
LINE
  5
2A1D
330
1F
100
AcDbEntity
  8
Z_OM_OUTLINE
100
AcDbLine
 10
625.6192744810707
 20
564.1930391839186
 30
0.0
 11
625.6192744810707
 21
564.9551351839185
 31
0.0
  0
LINE
  5
2A1E
330
1F
100
AcDbEntity
  8
Z_OM_OUTLINE
100
AcDbLine
 10
624.8992732810708
 20
565.5014381839186
 30
0.0
 11
624.8992732810708
 21
567.9466359839185
 31
0.0
  0
LINE
  5
2A1F
330
1F
100
AcDbEntity
  8
Z_OM_OUTLINE
100
AcDbLine
 10
625.6192744810707
 20
567.8003389839187
 30
0.0
 11
625.6192744810707
 21
568.1557390839186
 31
0.0
  0
LINE
  5
2A20
330
1F
100
AcDbEntity
  8
Z_OM_OUTLINE
100
AcDbLine
 10
624.8992732810708
 20
568.6682360839186
 30
0.0
 11
624.8992732810708
 21
568.8982350839186
 31
0.0
  0
LINE
  5
2A21
330
1F
100
AcDbEntity
  8
Z_OM_OUTLINE
100
AcDbLine
 10
625.6192744810707
 20
568.5739481839187
 30
0.0
 11
625.6192744810707
 21
568.6472361839186
 31
0.0
  0
LINE
  5
2A22
330
1F
100
AcDbEntity
  8
Z_OM_OUTLINE
100
AcDbLine
 10
615.0992701810707
 20
560.5091362839186
 30
0.0
 11
624.8992732810708
 21
560.5091362839186
 31
0.0
  0
LINE
  5
2A23
330
1F
100
AcDbEntity
  8
Z_OM_OUTLINE
100
AcDbLine
 10
615.0992701810707
 20
563.0955392839186
 30
0.0
 11
624.8992732810708
 21
563.0955392839186
 31
0.0
  0
LINE
  5
2A24
330
1F
100
AcDbEntity
  8
Z_OM_OUTLINE
100
AcDbLine
 10
624.8992732810708
 20
563.9538381839185
 30
0.0
 11
615.0992701810707
 21
563.9538381839185
 31
0.0
  0
LINE
  5
2A25
330
1F
100
AcDbEntity
  8
Z_OM_OUTLINE
100
AcDbLine
 10
617.2992671810708
 20
566.2294390839186
 30
0.0
 11
617.2992671810708
 21
566.3051493839186
 31
0.0
  0
LINE
  5
2A26
330
1F
100
AcDbEntity
  8
Z_OM_OUTLINE
100
AcDbLine
 10
617.2992671810708
 20
566.3051493839186
 30
0.0
 11
617.2992671810708
 21
566.8734362839186
 31
0.0
  0
LINE
  5
2A27
330
1F
100
AcDbEntity
  8
Z_OM_OUTLINE
100
AcDbLine
 10
617.2992671810708
 20
554.6581380839186
 30
0.0
 11
617.2992671810708
 21
554.6721379839185
 31
0.0
  0
LINE
  5
2A28
330
1F
100
AcDbEntity
  8
Z_OM_OUTLINE
100
AcDbLine
 10
614.6992762810707
 20
554.6934363839186
 30
0.0
 11
615.0146754810707
 21
554.6934363839186
 31
0.0
  0
LINE
  5
2A29
330
1F
100
AcDbEntity
  8
Z_OM_OUTLINE
100
AcDbLine
 10
617.2992671810708
 20
554.4627463839185
 30
0.0
 11
617.2992671810708
 21
554.6581380839186
 31
0.0
  0
LINE
  5
2A2A
330
1F
100
AcDbEntity
  8
Z_OM_OUTLINE
100
AcDbLine
 10
615.0362579274891
 20
568.8471491839186
 30
0.0
 11
614.8965724810707
 21
568.8471491839186
 31
0.0
  0
LINE
  5
2A2B
330
1F
100
AcDbEntity
  8
Z_OM_OUTLINE
100
AcDbLine
 10
614.6992762810707
 20
561.7944376839187
 30
0.0
 11
625.6192744810707
 21
561.7944376839187
 31
0.0
  0
LINE
  5
2A2C
330
1F
100
AcDbEntity
  8
Z_OM_OUTLINE
100
AcDbLine
 10
625.6192744810707
 20
560.1846392839186
 30
0.0
 11
614.6992762810707
 21
560.1846392839186
 31
0.0
  0
LINE
  5
2A2D
330
1F
100
AcDbEntity
  8
Z_OM_OUTLINE
100
AcDbLine
 10
625.6192744810707
 20
562.6321371839186
 30
0.0
 11
614.6992762810707
 21
562.6321371839186
 31
0.0
  0
LINE
  5
2A2E
330
1F
100
AcDbEntity
  8
Z_OM_OUTLINE
100
AcDbLine
 10
624.8992732810708
 20
558.8597371839186
 30
0.0
 11
615.0992701810707
 21
558.8597371839186
 31
0.0
  0
LINE
  5
2A2F
330
1F
100
AcDbEntity
  8
Z_OM_OUTLINE
100
AcDbLine
 10
615.0992701810707
 20
558.0543482839185
 30
0.0
 11
624.8992732810708
 21
558.0543482839185
 31
0.0
  0
LINE
  5
2A30
330
1F
100
AcDbEntity
  8
Z_OM_OUTLINE
100
AcDbLine
 10
614.6992762810707
 20
559.3723492839187
 30
0.0
 11
625.6192744810707
 21
559.3723492839187
 31
0.0
  0
LINE
  5
2A31
330
1F
100
AcDbEntity
  8
Z_OM_OUTLINE
100
AcDbLine
 10
614.6992762810707
 20
564.1930391839186
 30
0.0
 11
625.6192744810707
 21
564.1930391839186
 31
0.0
  0
LINE
  5
2A32
330
1F
100
AcDbEntity
  8
Z_OM_OUTLINE
100
AcDbLine
 10
625.6192744810707
 20
564.9551351839185
 30
0.0
 11
614.6992762810707
 21
564.9551351839185
 31
0.0
  0
LINE
  5
2A33
330
1F
100
AcDbEntity
  8
Z_OM_OUTLINE
100
AcDbLine
 10
615.0992701810707
 20
565.5014381839186
 30
0.0
 11
624.8992732810708
 21
565.5014381839186
 31
0.0
  0
LINE
  5
2A34
330
1F
100
AcDbEntity
  8
Z_OM_OUTLINE
100
AcDbLine
 10
615.0992701810707
 20
567.4368360839186
 30
0.0
 11
617.2992671810708
 21
567.4368360839186
 31
0.0
  0
LINE
  5
2A35
330
1F
100
AcDbEntity
  8
Z_OM_OUTLINE
100
AcDbLine
 10
624.8992732810708
 20
567.9466359839185
 30
0.0
 11
615.0992701810707
 21
567.9466359839185
 31
0.0
  0
LINE
  5
2A36
330
1F
100
AcDbEntity
  8
Z_OM_OUTLINE
100
AcDbLine
 10
615.0992701810707
 20
566.2294390839186
 30
0.0
 11
617.2992671810708
 21
566.2294390839186
 31
0.0
  0
ARC
  5
2A37
330
1F
100
AcDbEntity
  8
Z_OM_OUTLINE
100
AcDbCircle
 10
617.3231776810707
 20
566.6105392839186
 30
0.0
 40
0.3818663
100
AcDbArc
 50
266.4081116000026
 51
350.0098877000042
  0
LINE
  5
2A38
330
1F
100
AcDbEntity
  8
Z_OM_OUTLINE
100
AcDbLine
 10
617.6992762810707
 20
567.1726462839187
 30
0.0
 11
617.6992762810707
 21
566.5443379839185
 31
0.0
  0
LINE
  5
2A39
330
1F
100
AcDbEntity
  8
Z_OM_OUTLINE
100
AcDbLine
 10
625.6192744810707
 20
557.9078481839186
 30
0.0
 11
614.6992762810707
 21
557.9078481839186
 31
0.0
  0
LINE
  5
2A3A
330
1F
100
AcDbEntity
  8
Z_OM_OUTLINE
100
AcDbLine
 10
614.6992762810707
 20
557.2189371839185
 30
0.0
 11
625.6192744810707
 21
557.2189371839185
 31
0.0
  0
LINE
  5
2A3B
330
1F
100
AcDbEntity
  8
Z_OM_OUTLINE
100
AcDbLine
 10
624.8992732810708
 20
556.6555373839186
 30
0.0
 11
615.0992701810707
 21
556.6555373839186
 31
0.0
  0
LINE
  5
2A3C
330
1F
100
AcDbEntity
  8
Z_OM_OUTLINE
100
AcDbLine
 10
615.0992701810707
 20
556.0271451839184
 30
0.0
 11
624.8992732810708
 21
556.0271451839184
 31
0.0
  0
LINE
  5
2A3D
330
1F
100
AcDbEntity
  8
Z_OM_OUTLINE
100
AcDbLine
 10
617.4992793810708
 20
567.0107601610103
 30
0.0
 11
617.4992793810708
 21
566.4115493839187
 31
0.0
  0
LINE
  5
2A3E
330
1F
100
AcDbEntity
  8
Z_OM_OUTLINE
100
AcDbLine
 10
614.6992762810707
 20
566.8734362839186
 30
0.0
 11
617.2992671810708
 21
566.8734362839186
 31
0.0
  0
LINE
  5
2A3F
330
1F
100
AcDbEntity
  8
Z_OM_OUTLINE
100
AcDbLine
 10
617.2992671810708
 20
567.1516382839184
 30
0.0
 11
617.2992671810708
 21
567.4368360839186
 31
0.0
  0
LINE
  5
2A40
330
1F
100
AcDbEntity
  8
Z_OM_OUTLINE
100
AcDbLine
 10
617.2992671810708
 20
566.8734362839186
 30
0.0
 11
617.2992671810708
 21
567.1516382839184
 31
0.0
  0
LINE
  5
2A41
330
1F
100
AcDbEntity
  8
Z_OM_OUTLINE
100
AcDbLine
 10
614.8965724810707
 20
567.1516382839184
 30
0.0
 11
617.2992671810708
 21
567.1516382839184
 31
0.0
  0
LINE
  5
2A42
330
1F
100
AcDbEntity
  8
Z_OM_OUTLINE
100
AcDbLine
 10
614.6992762810707
 20
555.5940363839185
 30
0.0
 11
625.6192744810707
 21
555.5940363839185
 31
0.0
  0
LINE
  5
2A43
330
1F
100
AcDbEntity
  8
Z_OM_OUTLINE
100
AcDbLine
 10
624.8992732810708
 20
555.0477492839186
 30
0.0
 11
615.0992701810707
 21
555.0477492839186
 31
0.0
  0
LINE
  5
2A44
330
1F
100
AcDbEntity
  8
Z_OM_OUTLINE
100
AcDbLine
 10
617.2992671810708
 20
554.6721379839185
 30
0.0
 11
617.4316676810707
 21
554.6636393839186
 31
0.0
  0
LINE
  5
2A45
330
1F
100
AcDbEntity
  8
Z_OM_OUTLINE
100
AcDbLine
 10
617.4316676810707
 20
554.6636393839186
 30
0.0
 11
617.5490687810707
 21
554.6395380839186
 31
0.0
  0
LINE
  5
2A46
330
1F
100
AcDbEntity
  8
Z_OM_OUTLINE
100
AcDbLine
 10
617.5490687810707
 20
554.6395380839186
 30
0.0
 11
617.6383784810707
 21
554.6034362839186
 31
0.0
  0
LINE
  5
2A47
330
1F
100
AcDbEntity
  8
Z_OM_OUTLINE
100
AcDbLine
 10
617.6383784810707
 20
554.6034362839186
 30
0.0
 11
617.6894801810707
 21
554.5606463839185
 31
0.0
  0
LINE
  5
2A48
330
1F
100
AcDbEntity
  8
Z_OM_OUTLINE
100
AcDbLine
 10
617.6894801810707
 20
554.5606463839185
 30
0.0
 11
617.6992762810707
 21
554.5315363839184
 31
0.0
  0
LINE
  5
2A49
330
1F
100
AcDbEntity
  8
Z_OM_OUTLINE
100
AcDbLine
 10
615.0992701810707
 20
554.6721379839185
 30
0.0
 11
617.2992671810708
 21
554.6721379839185
 31
0.0
  0
LINE
  5
2A4A
330
1F
100
AcDbEntity
  8
Z_OM_OUTLINE
100
AcDbLine
 10
615.0992701810707
 20
554.2302363839186
 30
0.0
 11
617.2992671810708
 21
554.2302363839186
 31
0.0
  0
ARC
  5
2A4B
330
1F
100
AcDbEntity
  8
Z_OM_OUTLINE
100
AcDbCircle
 10
617.3963740810708
 20
554.8428380839186
 30
0.0
 40
0.6202328000000003
100
AcDbArc
 50
260.9970092999942
 51
299.2376098999928
  0
LINE
  5
2A4C
330
1F
100
AcDbEntity
  8
Z_OM_OUTLINE
100
AcDbLine
 10
617.6992762810707
 20
554.5315363839184
 30
0.0
 11
617.6992762810707
 21
554.3015482839185
 31
0.0
  0
LINE
  5
2A4D
330
1F
100
AcDbEntity
  8
Z_OM_OUTLINE
100
AcDbLine
 10
625.6192744810707
 20
568.1557390839186
 30
0.0
 11
614.6992762810707
 21
568.1557390839186
 31
0.0
  0
LINE
  5
2A4E
330
1F
100
AcDbEntity
  8
Z_OM_OUTLINE
100
AcDbLine
 10
615.0992701810707
 20
568.6682360839186
 30
0.0
 11
624.8992732810708
 21
568.6682360839186
 31
0.0
  0
LINE
  5
2A4F
330
1F
100
AcDbEntity
  8
Z_OM_OUTLINE
100
AcDbLine
 10
624.8992732810708
 20
568.8982350839186
 30
0.0
 11
615.0992701810707
 21
568.8982350839186
 31
0.0
  0
LINE
  5
2A50
330
1F
100
AcDbEntity
  8
Z_OM_OUTLINE
100
AcDbLine
 10
617.2992671810708
 20
554.2302363839186
 30
0.0
 11
617.2992671810708
 21
554.4627463839185
 31
0.0
  0
ARC
  5
2A51
330
1F
100
AcDbEntity
  8
Z_OM_OUTLINE
100
AcDbCircle
 10
617.3478663810707
 20
554.7763483839186
 30
0.0
 40
0.3172828
100
AcDbArc
 50
261.1946105999971
 51
298.507507299989
  0
LINE
  5
2A52
330
1F
100
AcDbEntity
  8
Z_OM_OUTLINE
100
AcDbLine
 10
614.8965724810707
 20
554.4627463839185
 30
0.0
 11
617.2992671810708
 21
554.4627463839185
 31
0.0
  0
LINE
  5
2A53
330
1F
100
AcDbEntity
  8
Z_OM_OUTLINE
100
AcDbLine
 10
614.7896738671071
 20
568.6472361839186
 30
0.0
 11
614.6992762810707
 21
568.6472361839186
 31
0.0
  0
LINE
  5
2A54
330
1F
100
AcDbEntity
  8
Z_OM_OUTLINE
100
AcDbLine
 10
614.1992762810708
 20
557.8999371839186
 30
0.0
 11
614.1992762810708
 21
565.1758391839186
 31
0.0
  0
LINE
  5
2A55
330
1F
100
AcDbEntity
  8
Z_OM_OUTLINE
100
AcDbLine
 10
614.1992762810708
 20
564.0999491839186
 30
0.0
 11
614.1992762810708
 21
565.0499382839186
 31
0.0
  0
LINE
  5
2A56
330
1F
100
AcDbEntity
  8
Z_OM_OUTLINE
100
AcDbLine
 10
614.1992762810708
 20
565.0499382839186
 30
0.0
 11
614.1992762810708
 21
565.1758391839186
 31
0.0
  0
LINE
  5
2A57
330
1F
100
AcDbEntity
  8
Z_OM_OUTLINE
100
AcDbLine
 10
625.7992671810708
 20
556.9249312839185
 30
0.0
 11
627.8992732810707
 21
556.9249312839185
 31
0.0
  0
LINE
  5
2A58
330
1F
100
AcDbEntity
  8
Z_OM_OUTLINE
100
AcDbLine
 10
627.8992732810707
 20
566.2249491839186
 30
0.0
 11
625.7992671810708
 21
566.2249491839186
 31
0.0
  0
LINE
  5
2A59
330
1F
100
AcDbEntity
  8
Z_OM_OUTLINE
100
AcDbLine
 10
615.0987666810707
 20
569.0249247839187
 30
0.0
 11
614.5992701810707
 21
568.5499379839186
 31
0.0
  0
LINE
  5
2A5A
330
1F
100
AcDbEntity
  8
Z_OM_OUTLINE
100
AcDbLine
 10
614.5992701810707
 20
554.6499373839185
 30
0.0
 11
615.0992701810707
 21
554.1249247839187
 31
0.0
  0
LINE
  5
2A5B
330
1F
100
AcDbEntity
  8
Z_OM_OUTLINE
100
AcDbLine
 10
624.8992732810708
 20
554.1249247839187
 30
0.0
 11
625.7992671810708
 21
554.6499373839185
 31
0.0
  0
LINE
  5
2A5C
330
1F
100
AcDbEntity
  8
Z_OM_OUTLINE
100
AcDbLine
 10
617.4991725810707
 20
566.4116361839186
 30
0.0
 11
617.4992793810708
 21
566.4111373839185
 31
0.0
  0
LINE
  5
2A5D
330
1F
100
AcDbEntity
  8
Z_OM_OUTLINE
100
AcDbLine
 10
617.2992671810708
 20
566.3051493839186
 30
0.0
 11
614.6992762810707
 21
566.3051493839186
 31
0.0
  0
LINE
  5
2A5E
330
1F
100
AcDbEntity
  8
Z_OM_OUTLINE
100
AcDbLine
 10
617.2992671810708
 20
554.6579363839185
 30
0.0
 11
617.3046687810707
 21
554.6581380839186
 31
0.0
  0
LINE
  5
2A5F
330
1F
100
AcDbEntity
  8
Z_OM_OUTLINE
100
AcDbLine
 10
617.3046687810707
 20
554.6581380839186
 30
0.0
 11
617.398132609633
 21
554.6521765846846
 31
0.0
  0
LINE
  5
2A60
330
1F
100
AcDbEntity
  8
Z_OM_OUTLINE
100
AcDbLine
 10
615.0992701810707
 20
554.1249247839187
 30
0.0
 11
624.8992732810708
 21
554.1249247839187
 31
0.0
  0
LINE
  5
2A61
330
1F
100
AcDbEntity
  8
Z_OM_OUTLINE
100
AcDbLine
 10
624.9000666810708
 20
569.0249247839187
 30
0.0
 11
615.0987666810707
 21
569.0249247839187
 31
0.0
  0
ARC
  5
2A62
330
1F
100
AcDbEntity
  8
Z_OM_OUTLINE
100
AcDbCircle
 10
614.4992793810708
 20
557.8999371839186
 30
0.0
 40
0.3
100
AcDbArc
 50
180.0
 51
270.0
  0
LINE
  5
2A63
330
1F
100
AcDbEntity
  8
Z_OM_OUTLINE
100
AcDbLine
 10
614.4992793810708
 20
557.5999491839186
 30
0.0
 11
614.5992701810707
 21
557.5999491839186
 31
0.0
  0
ARC
  5
2A64
330
1F
100
AcDbEntity
  8
Z_OM_OUTLINE
100
AcDbCircle
 10
614.4992815731291
 20
565.1758338918216
 30
0.0
 40
0.3000052921050119
100
AcDbArc
 50
90.00041864491789
 51
179.9989893017635
  0
LINE
  5
2A65
330
1F
100
AcDbEntity
  8
Z_OM_OUTLINE
100
AcDbLine
 10
614.5992701810707
 20
565.4758451839186
 30
0.0
 11
614.4992793810708
 21
565.4758451839186
 31
0.0
  0
LINE
  5
2A66
330
1F
100
AcDbEntity
  8
Z_OM_OUTLINE
100
AcDbLine
 10
614.5992701810707
 20
554.6499373839185
 30
0.0
 11
614.5992701810707
 21
568.5499379839186
 31
0.0
  0
LINE
  5
2A67
330
1F
100
AcDbEntity
  8
Z_OM_OUTLINE
100
AcDbLine
 10
615.0992701810707
 20
554.2302363839186
 30
0.0
 11
615.0992701810707
 21
554.1249247839187
 31
0.0
  0
LINE
  5
2A68
330
1F
100
AcDbEntity
  8
Z_OM_OUTLINE
100
AcDbLine
 10
614.6992762810707
 20
568.6472361839186
 30
0.0
 11
614.6992762810707
 21
568.5739481839187
 31
0.0
  0
LINE
  5
2A69
330
1F
100
AcDbEntity
  8
Z_OM_OUTLINE
100
AcDbLine
 10
615.0992701810707
 20
568.8982350839186
 30
0.0
 11
615.0992701810707
 21
568.6682360839186
 31
0.0
  0
ARC
  5
2A6A
330
1F
100
AcDbEntity
  8
Z_OM_OUTLINE
100
AcDbCircle
 10
614.5959742810707
 20
568.8548362839186
 30
0.0
 40
0.5368109000000001
100
AcDbArc
 50
304.0502013999974
 51
339.6571044999918
  0
ARC
  5
2A6B
330
1F
100
AcDbEntity
  8
Z_OM_OUTLINE
100
AcDbCircle
 10
615.3480799810708
 20
567.8563392839186
 30
0.0
 40
0.7145803000000001
100
AcDbArc
 50
129.1947021000033
 51
155.2277068999942
  0
LINE
  5
2A6C
330
1F
100
AcDbEntity
  8
Z_OM_OUTLINE
100
AcDbLine
 10
614.6992762810707
 20
568.1557390839186
 30
0.0
 11
614.6992762810707
 21
567.8003389839187
 31
0.0
  0
LINE
  5
2A6D
330
1F
100
AcDbEntity
  8
Z_OM_OUTLINE
100
AcDbLine
 10
615.0992701810707
 20
567.9466359839185
 30
0.0
 11
615.0992701810707
 21
567.4368360839186
 31
0.0
  0
LINE
  5
2A6E
330
1F
100
AcDbEntity
  8
Z_OM_OUTLINE
100
AcDbLine
 10
614.6992762810707
 20
566.8734362839186
 30
0.0
 11
614.6992762810707
 21
566.3051493839186
 31
0.0
  0
LINE
  5
2A6F
330
1F
100
AcDbEntity
  8
Z_OM_OUTLINE
100
AcDbLine
 10
615.0992701810707
 20
566.2294390839186
 30
0.0
 11
615.0992701810707
 21
565.5014381839186
 31
0.0
  0
ARC
  5
2A70
330
1F
100
AcDbEntity
  8
Z_OM_OUTLINE
100
AcDbCircle
 10
614.7609675810707
 20
565.5353362839186
 30
0.0
 40
0.3400334
100
AcDbArc
 50
293.498809800001
 51
354.2802124000057
  0
ARC
  5
2A71
330
1F
100
AcDbEntity
  8
Z_OM_OUTLINE
100
AcDbCircle
 10
615.0497706810707
 20
564.9042360839184
 30
0.0
 40
0.3542208
100
AcDbArc
 50
115.6437987999999
 51
171.7313994999974
  0
LINE
  5
2A72
330
1F
100
AcDbEntity
  8
Z_OM_OUTLINE
100
AcDbLine
 10
614.6992762810707
 20
564.9551351839185
 30
0.0
 11
614.6992762810707
 21
564.1930391839186
 31
0.0
  0
LINE
  5
2A73
330
1F
100
AcDbEntity
  8
Z_OM_OUTLINE
100
AcDbLine
 10
615.0992701810707
 20
563.9538381839185
 30
0.0
 11
615.0992701810707
 21
563.0955392839186
 31
0.0
  0
LINE
  5
2A74
330
1F
100
AcDbEntity
  8
Z_OM_OUTLINE
100
AcDbLine
 10
614.6992762810707
 20
562.6321371839186
 30
0.0
 11
614.6992762810707
 21
561.7944376839187
 31
0.0
  0
LINE
  5
2A75
330
1F
100
AcDbEntity
  8
Z_OM_OUTLINE
100
AcDbLine
 10
615.0992701810707
 20
561.3944360839187
 30
0.0
 11
615.0992701810707
 21
560.5091362839186
 31
0.0
  0
LINE
  5
2A76
330
1F
100
AcDbEntity
  8
Z_OM_OUTLINE
100
AcDbLine
 10
614.6992762810707
 20
560.1846392839186
 30
0.0
 11
614.6992762810707
 21
559.3723492839187
 31
0.0
  0
LINE
  5
2A77
330
1F
100
AcDbEntity
  8
Z_OM_OUTLINE
100
AcDbLine
 10
615.0992701810707
 20
558.8597371839186
 30
0.0
 11
615.0992701810707
 21
558.0543482839185
 31
0.0
  0
LINE
  5
2A78
330
1F
100
AcDbEntity
  8
Z_OM_OUTLINE
100
AcDbLine
 10
614.6992762810707
 20
557.9078481839186
 30
0.0
 11
614.6992762810707
 21
557.2189371839185
 31
0.0
  0
LINE
  5
2A79
330
1F
100
AcDbEntity
  8
Z_OM_OUTLINE
100
AcDbLine
 10
615.0992701810707
 20
556.6555373839186
 30
0.0
 11
615.0992701810707
 21
556.0271451839184
 31
0.0
  0
LINE
  5
2A7A
330
1F
100
AcDbEntity
  8
Z_OM_OUTLINE
100
AcDbLine
 10
614.6992762810707
 20
556.0763361839185
 30
0.0
 11
614.6992762810707
 21
555.5940363839185
 31
0.0
  0
LINE
  5
2A7B
330
1F
100
AcDbEntity
  8
Z_OM_OUTLINE
100
AcDbLine
 10
615.0992701810707
 20
555.0477492839186
 30
0.0
 11
615.0992701810707
 21
554.6721379839185
 31
0.0
  0
ARC
  5
2A7C
330
1F
100
AcDbEntity
  8
Z_OM_OUTLINE
100
AcDbCircle
 10
592.0355268565156
 20
565.3716602839185
 30
0.0
 40
0.2
100
AcDbArc
 50
300.0000000000158
 51
31.58081050000376
  0
ARC
  5
2A7D
330
1F
100
AcDbEntity
  8
Z_OM_OUTLINE
100
AcDbCircle
 10
592.2355237565154
 20
565.0252511839186
 30
0.0
 40
0.2
100
AcDbArc
 50
119.9999999999714
 51
208.4192046999928
  0
ARC
  5
2A7E
330
1F
100
AcDbEntity
  8
Z_OM_OUTLINE
100
AcDbCircle
 10
585.8592267565156
 20
561.5748616839185
 30
0.0
 40
7.0500002
100
AcDbArc
 50
21.58081050000065
 51
28.4191895000009
  0
ARC
  5
2A7F
330
1F
100
AcDbEntity
  8
Z_OM_OUTLINE
100
AcDbCircle
 10
592.6010327565156
 20
564.2414612839186
 30
0.0
 40
0.2
100
AcDbArc
 50
201.5807952999879
 51
289.9999999999915
  0
ARC
  5
2A80
330
1F
100
AcDbEntity
  8
Z_OM_OUTLINE
100
AcDbCircle
 10
592.7378278565156
 20
563.8655612839186
 30
0.0
 40
0.2
100
AcDbArc
 50
18.41918950000642
 51
110.0000000000221
  0
ARC
  5
2A81
330
1F
100
AcDbEntity
  8
Z_OM_OUTLINE
100
AcDbCircle
 10
585.8592267565156
 20
561.5748616839185
 30
0.0
 40
7.449999799999997
100
AcDbArc
 50
11.58080960000005
 51
18.41918950000044
  0
ARC
  5
2A82
330
1F
100
AcDbEntity
  8
Z_OM_OUTLINE
100
AcDbCircle
 10
592.9616284565156
 20
563.0302602839186
 30
0.0
 40
0.2
100
AcDbArc
 50
280.0000000000009
 51
11.5808095999874
  0
ARC
  5
2A83
330
1F
100
AcDbEntity
  8
Z_OM_OUTLINE
100
AcDbCircle
 10
593.0311322565156
 20
562.6363581839187
 30
0.0
 40
0.2
100
AcDbArc
 50
100.0000000000009
 51
188.4192047000126
  0
ARC
  5
2A84
330
1F
100
AcDbEntity
  8
Z_OM_OUTLINE
100
AcDbCircle
 10
585.8592267565156
 20
561.5748616839185
 30
0.0
 40
7.0500002
100
AcDbArc
 50
1.580811000000528
 51
8.419189500000246
  0
ARC
  5
2A85
330
1F
100
AcDbEntity
  8
Z_OM_OUTLINE
100
AcDbCircle
 10
593.1064344565156
 20
561.7748586839186
 30
0.0
 40
0.2
100
AcDbArc
 50
181.5807953000104
 51
270.0
  0
ARC
  5
2A86
330
1F
100
AcDbEntity
  8
Z_OM_OUTLINE
100
AcDbCircle
 10
593.1064344565156
 20
561.3748608839186
 30
0.0
 40
0.2
100
AcDbArc
 50
358.4191895000087
 51
90.0
  0
ARC
  5
2A87
330
1F
100
AcDbEntity
  8
Z_OM_OUTLINE
100
AcDbCircle
 10
585.8592267565156
 20
561.5748616839185
 30
0.0
 40
7.449999799999997
100
AcDbArc
 50
351.5808105
 51
358.4191895000005
  0
ARC
  5
2A88
330
1F
100
AcDbEntity
  8
Z_OM_OUTLINE
100
AcDbCircle
 10
593.0311322565156
 20
560.5133612839185
 30
0.0
 40
0.2
100
AcDbArc
 50
259.9999999999991
 51
351.5808105000019
  0
ARC
  5
2A89
330
1F
100
AcDbEntity
  8
Z_OM_OUTLINE
100
AcDbCircle
 10
592.9616284565156
 20
560.1193481839186
 30
0.0
 40
0.2
100
AcDbArc
 50
79.99999999999912
 51
168.419204700015
  0
ARC
  5
2A8A
330
1F
100
AcDbEntity
  8
Z_OM_OUTLINE
100
AcDbCircle
 10
585.8592267565156
 20
561.5748616839185
 30
0.0
 40
7.0500002
100
AcDbArc
 50
341.5808105000001
 51
348.419189500001
  0
ARC
  5
2A8B
330
1F
100
AcDbEntity
  8
Z_OM_OUTLINE
100
AcDbCircle
 10
592.7378278565156
 20
559.2840602839186
 30
0.0
 40
0.2
100
AcDbArc
 50
161.5807952999936
 51
249.9999999999779
  0
ARC
  5
2A8C
330
1F
100
AcDbEntity
  8
Z_OM_OUTLINE
100
AcDbCircle
 10
592.6010327565156
 20
558.9081592839185
 30
0.0
 40
0.2
100
AcDbArc
 50
338.4191895000118
 51
70.00000000000852
  0
ARC
  5
2A8D
330
1F
100
AcDbEntity
  8
Z_OM_OUTLINE
100
AcDbCircle
 10
585.8592267565156
 20
561.5748616839185
 30
0.0
 40
7.449999799999997
100
AcDbArc
 50
331.5808104999998
 51
338.4191894999996
  0
ARC
  5
2A8E
330
1F
100
AcDbEntity
  8
Z_OM_OUTLINE
100
AcDbCircle
 10
592.2355237565154
 20
558.1244602839186
 30
0.0
 40
0.2
100
AcDbArc
 50
240.0000000000285
 51
331.5808104999979
  0
ARC
  5
2A8F
330
1F
100
AcDbEntity
  8
Z_OM_OUTLINE
100
AcDbCircle
 10
592.0355268565156
 20
557.7780511839184
 30
0.0
 40
0.2
100
AcDbArc
 50
60.00000000000032
 51
148.4192046999959
  0
ARC
  5
2A90
330
1F
100
AcDbEntity
  8
Z_OM_OUTLINE
100
AcDbCircle
 10
585.8592267565156
 20
561.5748616839185
 30
0.0
 40
7.0500002
100
AcDbArc
 50
321.5808104999998
 51
328.4191895000001
  0
ARC
  5
2A91
330
1F
100
AcDbEntity
  8
Z_OM_OUTLINE
100
AcDbCircle
 10
591.5395246565156
 20
557.0696580839186
 30
0.0
 40
0.2
100
AcDbArc
 50
141.5807953000101
 51
230.0000000000025
  0
ARC
  5
2A92
330
1F
100
AcDbEntity
  8
Z_OM_OUTLINE
100
AcDbCircle
 10
591.2824292565154
 20
556.7631590839186
 30
0.0
 40
0.2
100
AcDbArc
 50
318.4191895000109
 51
49.99999999995651
  0
ARC
  5
2A93
330
1F
100
AcDbEntity
  8
Z_OM_OUTLINE
100
AcDbCircle
 10
585.8592267565156
 20
561.5748616839185
 30
0.0
 40
7.449999799999997
100
AcDbArc
 50
311.5808105
 51
318.4191894999993
  0
ARC
  5
2A94
330
1F
100
AcDbEntity
  8
Z_OM_OUTLINE
100
AcDbCircle
 10
590.6708264565156
 20
556.1516592839186
 30
0.0
 40
0.2
100
AcDbArc
 50
219.9999999999976
 51
311.5808104999891
  0
ARC
  5
2A95
330
1F
100
AcDbEntity
  8
Z_OM_OUTLINE
100
AcDbCircle
 10
590.3644300565156
 20
555.8945481839185
 30
0.0
 40
0.2
100
AcDbArc
 50
39.9999999999976
 51
128.4192046999898
  0
ARC
  5
2A96
330
1F
100
AcDbEntity
  8
Z_OM_OUTLINE
100
AcDbCircle
 10
585.8592267565156
 20
561.5748616839185
 30
0.0
 40
7.0500002
100
AcDbArc
 50
301.5808104999999
 51
308.4191894999989
  0
ARC
  5
2A97
330
1F
100
AcDbEntity
  8
Z_OM_OUTLINE
100
AcDbCircle
 10
589.6560254565156
 20
555.3985622839186
 30
0.0
 40
0.2
100
AcDbArc
 50
121.5808029000039
 51
209.9999999999996
  0
ARC
  5
2A98
330
1F
100
AcDbEntity
  8
Z_OM_OUTLINE
100
AcDbCircle
 10
589.3096356565156
 20
555.1985609839187
 30
0.0
 40
0.2
100
AcDbArc
 50
298.4191895000021
 51
29.99999999997148
  0
ARC
  5
2A99
330
1F
100
AcDbEntity
  8
Z_OM_OUTLINE
100
AcDbCircle
 10
585.8592267565156
 20
561.5748616839185
 30
0.0
 40
7.449999799999997
100
AcDbArc
 50
291.5808104999996
 51
298.4191895000003
  0
ARC
  5
2A9A
330
1F
100
AcDbEntity
  8
Z_OM_OUTLINE
100
AcDbCircle
 10
588.5258374565156
 20
554.8330524839186
 30
0.0
 40
0.2
100
AcDbArc
 50
199.9999999999914
 51
291.5808104999882
  0
ARC
  5
2A9B
330
1F
100
AcDbEntity
  8
Z_OM_OUTLINE
100
AcDbCircle
 10
588.1500287565156
 20
554.6962611839186
 30
0.0
 40
0.2
100
AcDbArc
 50
19.99999999999147
 51
108.4191971000013
  0
ARC
  5
2A9C
330
1F
100
AcDbEntity
  8
Z_OM_OUTLINE
100
AcDbCircle
 10
585.8592267565156
 20
561.5748616839185
 30
0.0
 40
7.0500002
100
AcDbArc
 50
281.5808104999998
 51
288.4191894999999
  0
ARC
  5
2A9D
330
1F
100
AcDbEntity
  8
Z_OM_OUTLINE
100
AcDbCircle
 10
587.3146253565156
 20
554.4724600839185
 30
0.0
 40
0.2
100
AcDbArc
 50
101.5808029000168
 51
189.9999999999631
  0
ARC
  5
2A9E
330
1F
100
AcDbEntity
  8
Z_OM_OUTLINE
100
AcDbCircle
 10
586.9207349565156
 20
554.4029481839186
 30
0.0
 40
0.2
100
AcDbArc
 50
278.4191894999981
 51
10.00000000000087
  0
LINE
  5
2A9F
330
1F
100
AcDbEntity
  8
Z_OM_OUTLINE
100
AcDbLine
 10
586.9592328565156
 20
568.0318582839186
 30
0.0
 11
586.9592328565156
 21
568.1332609839186
 31
0.0
  0
ARC
  5
2AA0
330
1F
100
AcDbEntity
  8
Z_OM_OUTLINE
100
AcDbCircle
 10
585.8592267565156
 20
561.5748616839185
 30
0.0
 40
6.650000099999997
100
AcDbArc
 50
80.478698700001
 51
97.77819820000001
  0
LINE
  5
2AA1
330
1F
100
AcDbEntity
  8
Z_OM_OUTLINE
100
AcDbLine
 10
584.9592328565156
 20
568.1636602839184
 30
0.0
 11
584.9592328565156
 21
568.0626580839185
 31
0.0
  0
ARC
  5
2AA2
330
1F
100
AcDbEntity
  8
Z_OM_OUTLINE
100
AcDbCircle
 10
585.8592267565156
 20
561.5748616839185
 30
0.0
 40
6.5500002
100
AcDbArc
 50
97.89771270000024
 51
200.3320006999991
  0
LINE
  5
2AA3
330
1F
100
AcDbEntity
  8
Z_OM_OUTLINE
100
AcDbLine
 10
579.6295362565156
 20
559.2482593839186
 30
0.0
 11
579.7173352565156
 21
559.2989602839186
 31
0.0
  0
ARC
  5
2AA4
330
1F
100
AcDbEntity
  8
Z_OM_OUTLINE
100
AcDbCircle
 10
585.8592267565156
 20
561.5748616839185
 30
0.0
 40
6.650000099999997
100
AcDbArc
 50
200.4786987000001
 51
217.7781981999992
  0
LINE
  5
2AA5
330
1F
100
AcDbEntity
  8
Z_OM_OUTLINE
100
AcDbLine
 10
580.6031232565157
 20
557.5010593839187
 30
0.0
 11
580.6905255565157
 21
557.5514581839184
 31
0.0
  0
ARC
  5
2AA6
330
1F
100
AcDbEntity
  8
Z_OM_OUTLINE
100
AcDbCircle
 10
585.8592267565156
 20
561.5748616839185
 30
0.0
 40
6.5500002
100
AcDbArc
 50
217.8977050999992
 51
320.3320006999992
  0
LINE
  5
2AA7
330
1F
100
AcDbEntity
  8
Z_OM_OUTLINE
100
AcDbLine
 10
590.9889264565156
 20
557.3430612839185
 30
0.0
 11
590.9011273565156
 21
557.3937590839185
 31
0.0
  0
ARC
  5
2AA8
330
1F
100
AcDbEntity
  8
Z_OM_OUTLINE
100
AcDbCircle
 10
585.8592267565156
 20
561.5748616839185
 30
0.0
 40
6.650000099999997
100
AcDbArc
 50
320.4786986999998
 51
337.7781982000004
  0
LINE
  5
2AA9
330
1F
100
AcDbEntity
  8
Z_OM_OUTLINE
100
AcDbLine
 10
592.0153241565157
 20
559.0598580839185
 30
0.0
 11
591.9279370565154
 21
559.1103692839186
 31
0.0
  0
ARC
  5
2AAA
330
1F
100
AcDbEntity
  8
Z_OM_OUTLINE
100
AcDbCircle
 10
585.8592267565156
 20
561.5748616839185
 30
0.0
 40
6.5500002
100
AcDbArc
 50
337.8977051000003
 51
80.33200070000072
  0
LINE
  5
2AAB
330
1F
100
AcDbEntity
  8
Z_OM_OUTLINE
100
AcDbLine
 10
584.9592328565156
 20
567.5069601839186
 30
0.0
 11
584.9592328565156
 21
568.0626580839185
 31
0.0
  0
ARC
  5
2AAC
330
1F
100
AcDbEntity
  8
Z_OM_OUTLINE
100
AcDbCircle
 10
585.8592267565156
 20
561.5748616839185
 30
0.0
 40
6.0
100
AcDbArc
 50
98.62689210000073
 51
199.4360046
  0
LINE
  5
2AAD
330
1F
100
AcDbEntity
  8
Z_OM_OUTLINE
100
AcDbLine
 10
579.7173352565156
 20
559.2989602839186
 30
0.0
 11
580.2011304565156
 21
559.5783481839186
 31
0.0
  0
ARC
  5
2AAE
330
1F
100
AcDbEntity
  8
Z_OM_OUTLINE
100
AcDbCircle
 10
585.8592267565156
 20
561.5748616839185
 30
0.0
 40
6.0
100
AcDbArc
 50
218.6269073
 51
319.4360045999988
  0
LINE
  5
2AAF
330
1F
100
AcDbEntity
  8
Z_OM_OUTLINE
100
AcDbLine
 10
590.9011273565156
 20
557.3937590839185
 30
0.0
 11
590.4173322565156
 21
557.6730601839186
 31
0.0
  0
LINE
  5
2AB0
330
1F
100
AcDbEntity
  8
Z_OM_OUTLINE
100
AcDbLine
 10
581.1718335565156
 20
557.8293511839185
 30
0.0
 11
580.6905255565157
 21
557.5514581839184
 31
0.0
  0
LINE
  5
2AB1
330
1F
100
AcDbEntity
  8
Z_OM_OUTLINE
100
AcDbLine
 10
591.4466291565156
 20
559.3881592839186
 30
0.0
 11
591.9279370565154
 21
559.1103692839186
 31
0.0
  0
ARC
  5
2AB2
330
1F
100
AcDbEntity
  8
Z_OM_OUTLINE
100
AcDbCircle
 10
585.8592267565156
 20
561.5748616839185
 30
0.0
 40
6.0
100
AcDbArc
 50
338.626892100001
 51
79.4359970000001
  0
LINE
  5
2AB3
330
1F
100
AcDbEntity
  8
Z_OM_OUTLINE
100
AcDbLine
 10
586.9592328565156
 20
568.0318582839186
 30
0.0
 11
586.9592328565156
 21
567.4731624839186
 31
0.0
  0
ARC
  5
2AB4
330
1F
100
AcDbEntity
  8
Z_OM_OUTLINE
100
AcDbCircle
 10
585.8256269565156
 20
561.2888586839186
 30
0.0
 40
5.811399899999998
100
AcDbArc
 50
341.5585022
 51
28.58779909999958
  0
ARC
  5
2AB5
330
1F
100
AcDbEntity
  8
Z_OM_OUTLINE
100
AcDbCircle
 10
585.8592267565156
 20
561.5748616839185
 30
0.0
 40
5.650000099999997
100
AcDbArc
 50
339.1658020000008
 51
26.20360950000077
  0
LINE
  5
2AB6
330
1F
100
AcDbEntity
  8
Z_OM_OUTLINE
100
AcDbLine
 10
591.1398358565158
 20
559.5653522839186
 30
0.0
 11
591.3386273565156
 21
559.4505481839186
 31
0.0
  0
ARC
  5
2AB7
330
1F
100
AcDbEntity
  8
Z_OM_OUTLINE
100
AcDbCircle
 10
585.8592267565156
 20
561.5748616839185
 30
0.0
 40
5.650000099999997
100
AcDbArc
 50
26.20360950000077
 51
36.8599892000005
  0
LINE
  5
2AB8
330
1F
100
AcDbEntity
  8
Z_OM_OUTLINE
100
AcDbLine
 10
590.3798261565156
 20
564.9640603839186
 30
0.0
 11
590.6296277565156
 21
565.2138621839186
 31
0.0
  0
LINE
  5
2AB9
330
1F
100
AcDbEntity
  8
Z_OM_OUTLINE
100
AcDbLine
 10
591.4466291565156
 20
559.3881592839186
 30
0.0
 11
591.3386273565156
 21
559.4505481839186
 31
0.0
  0
ARC
  5
2ABA
330
1F
100
AcDbEntity
  8
Z_OM_OUTLINE
100
AcDbCircle
 10
585.8592267565156
 20
561.5748616839185
 30
0.0
 40
5.650000099999997
100
AcDbArc
 50
99.16580200000041
 51
154.7586974999988
  0
LINE
  5
2ABB
330
1F
100
AcDbEntity
  8
Z_OM_OUTLINE
100
AcDbLine
 10
580.6535230565156
 20
563.7979602839187
 30
0.0
 11
580.7487226565156
 21
563.9841482839186
 31
0.0
  0
LINE
  5
2ABC
330
1F
100
AcDbEntity
  8
Z_OM_OUTLINE
100
AcDbLine
 10
580.6535230565156
 20
563.7979602839187
 30
0.0
 11
580.3225293565154
 21
563.8866601839184
 31
0.0
  0
LINE
  5
2ABD
330
1F
100
AcDbEntity
  8
Z_OM_OUTLINE
100
AcDbLine
 10
584.9592328565156
 20
567.5069601839186
 30
0.0
 11
584.9592328565156
 21
567.1526591839185
 31
0.0
  0
LINE
  5
2ABE
330
1F
100
AcDbEntity
  8
Z_OM_OUTLINE
100
AcDbLine
 10
586.6229291565156
 20
555.6337611839186
 30
0.0
 11
586.6255231565157
 21
555.6239612839185
 31
0.0
  0
LINE
  5
2ABF
330
1F
100
AcDbEntity
  8
Z_OM_OUTLINE
100
AcDbLine
 10
581.1718335565156
 20
557.8293511839185
 30
0.0
 11
581.2084241565156
 21
557.8504581839186
 31
0.0
  0
ARC
  5
2AC0
330
1F
100
AcDbEntity
  8
Z_OM_OUTLINE
100
AcDbCircle
 10
585.8592267565156
 20
561.5748616839185
 30
0.0
 40
5.650000099999997
100
AcDbArc
 50
219.1658019999997
 51
276.8599853999997
  0
LINE
  5
2AC1
330
1F
100
AcDbEntity
  8
Z_OM_OUTLINE
100
AcDbLine
 10
586.6229291565156
 20
555.6337611839186
 30
0.0
 11
586.5341230565157
 21
555.9652621839186
 31
0.0
  0
LINE
  5
2AC2
330
1F
100
AcDbEntity
  8
Z_OM_OUTLINE
100
AcDbLine
 10
581.4786267565156
 20
558.0064492839186
 30
0.0
 11
581.2084241565156
 21
557.8504581839186
 31
0.0
  0
LINE
  5
2AC3
330
1F
100
AcDbEntity
  8
Z_OM_OUTLINE
100
AcDbLine
 10
580.6535230565156
 20
563.7979602839187
 30
0.0
 11
580.6638227565156
 21
563.7951603839186
 31
0.0
  0
CIRCLE
  5
2AC4
330
1F
100
AcDbEntity
  8
Z_OM_OUTLINE
100
AcDbCircle
 10
585.8592267565156
 20
561.5748616839185
 30
0.0
 40
5.3499999
  0
LINE
  5
2AC5
330
1F
100
AcDbEntity
  8
Z_OM_OUTLINE
100
AcDbLine
 10
580.5098310565155
 20
559.7565522839186
 30
0.0
 11
580.2011304565156
 21
559.5783481839186
 31
0.0
  0
ARC
  5
2AC6
330
1F
100
AcDbEntity
  8
Z_OM_OUTLINE
100
AcDbCircle
 10
585.8592267565156
 20
561.5748616839185
 30
0.0
 40
5.650000099999997
100
AcDbArc
 50
156.8600005999994
 51
198.7734069999996
  0
LINE
  5
2AC7
330
1F
100
AcDbEntity
  8
Z_OM_OUTLINE
100
AcDbLine
 10
586.9592328565156
 20
567.1167581839186
 30
0.0
 11
586.9592328565156
 21
567.4448611839186
 31
0.0
  0
ARC
  5
2AC8
330
1F
100
AcDbEntity
  8
Z_OM_OUTLINE
100
AcDbCircle
 10
585.8592267565156
 20
561.5748616839185
 30
0.0
 40
5.650000099999997
100
AcDbArc
 50
36.8599892000005
 51
78.77340700000035
  0
LINE
  5
2AC9
330
1F
100
AcDbEntity
  8
Z_OM_OUTLINE
100
AcDbLine
 10
590.1086316565156
 20
557.8512592839187
 30
0.0
 11
590.4173322565156
 21
557.6730601839186
 31
0.0
  0
ARC
  5
2ACA
330
1F
100
AcDbEntity
  8
Z_OM_OUTLINE
100
AcDbCircle
 10
585.8592267565156
 20
561.5748616839185
 30
0.0
 40
5.650000099999997
100
AcDbArc
 50
276.8599853999997
 51
318.7734070000004
  0
CIRCLE
  5
2ACB
330
1F
100
AcDbEntity
  8
Z_OM_OUTLINE
100
AcDbCircle
 10
585.8592267565154
 20
561.5748616839185
 30
0.0
 40
6.949999799999997
  0
ARC
  5
2ACC
330
1F
100
AcDbEntity
  8
Z_OM_OUTLINE
100
AcDbCircle
 10
585.8592267565154
 20
561.5748616839185
 30
0.0
 40
7.449999799999997
100
AcDbArc
 50
271.5808104999995
 51
278.4191895
  0
ARC
  5
2ACD
330
1F
100
AcDbEntity
  8
Z_OM_OUTLINE
100
AcDbCircle
 10
586.0592237565156
 20
554.3275592839186
 30
0.0
 40
0.2
100
AcDbArc
 50
180.0
 51
271.5808104999914
  0
ARC
  5
2ACE
330
1F
100
AcDbEntity
  8
Z_OM_OUTLINE
100
AcDbCircle
 10
585.6592298565154
 20
554.3275592839186
 30
0.0
 40
0.2
100
AcDbArc
 50
0.0
 51
88.41918950000868
  0
ARC
  5
2ACF
330
1F
100
AcDbEntity
  8
Z_OM_OUTLINE
100
AcDbCircle
 10
585.8592267565154
 20
561.5748616839185
 30
0.0
 40
7.0500002
100
AcDbArc
 50
261.5808105000007
 51
268.4191894999997
  0
ARC
  5
2AD0
330
1F
100
AcDbEntity
  8
Z_OM_OUTLINE
100
AcDbCircle
 10
584.7977338565156
 20
554.4029481839186
 30
0.0
 40
0.2
100
AcDbArc
 50
81.58081050000189
 51
169.9999999999991
  0
ARC
  5
2AD1
330
1F
100
AcDbEntity
  8
Z_OM_OUTLINE
100
AcDbCircle
 10
584.4038282565154
 20
554.4724600839185
 30
0.0
 40
0.2
100
AcDbArc
 50
258.4191895000217
 51
350.0000000000369
  0
ARC
  5
2AD2
330
1F
100
AcDbEntity
  8
Z_OM_OUTLINE
100
AcDbCircle
 10
585.8592267565154
 20
561.5748616839185
 30
0.0
 40
7.449999799999997
100
AcDbArc
 50
251.5807953000003
 51
258.4191894999998
  0
ARC
  5
2AD3
330
1F
100
AcDbEntity
  8
Z_OM_OUTLINE
100
AcDbCircle
 10
583.5684247565154
 20
554.6962611839186
 30
0.0
 40
0.2
100
AcDbArc
 50
160.0000000000085
 51
251.5807952999936
  0
ARC
  5
2AD4
330
1F
100
AcDbEntity
  8
Z_OM_OUTLINE
100
AcDbCircle
 10
583.1926313565154
 20
554.8330524839186
 30
0.0
 40
0.2
100
AcDbArc
 50
340.0000000000085
 51
68.41918949998154
  0
ARC
  5
2AD5
330
1F
100
AcDbEntity
  8
Z_OM_OUTLINE
100
AcDbCircle
 10
585.8592267565154
 20
561.5748616839185
 30
0.0
 40
7.0500002
100
AcDbArc
 50
241.5807953000006
 51
248.4192047000005
  0
ARC
  5
2AD6
330
1F
100
AcDbEntity
  8
Z_OM_OUTLINE
100
AcDbCircle
 10
582.4088330565156
 20
555.1985609839187
 30
0.0
 40
0.2
100
AcDbArc
 50
61.58081049999786
 51
150.0000000000285
  0
ARC
  5
2AD7
330
1F
100
AcDbEntity
  8
Z_OM_OUTLINE
100
AcDbCircle
 10
582.0624280565156
 20
555.3985622839186
 30
0.0
 40
0.2
100
AcDbArc
 50
238.419204700013
 51
329.999999999984
  0
ARC
  5
2AD8
330
1F
100
AcDbEntity
  8
Z_OM_OUTLINE
100
AcDbCircle
 10
585.8592267565154
 20
561.5748616839185
 30
0.0
 40
7.449999799999997
100
AcDbArc
 50
231.5807952999997
 51
238.4192047000001
  0
ARC
  5
2AD9
330
1F
100
AcDbEntity
  8
Z_OM_OUTLINE
100
AcDbCircle
 10
581.3540235565154
 20
555.8945481839185
 30
0.0
 40
0.2
100
AcDbArc
 50
140.0000000000024
 51
231.5807953000101
  0
ARC
  5
2ADA
330
1F
100
AcDbEntity
  8
Z_OM_OUTLINE
100
AcDbCircle
 10
581.0476270565154
 20
556.1516592839186
 30
0.0
 40
0.2
100
AcDbArc
 50
320.0000000000024
 51
48.41918950001097
  0
ARC
  5
2ADB
330
1F
100
AcDbEntity
  8
Z_OM_OUTLINE
100
AcDbCircle
 10
585.8592267565154
 20
561.5748616839185
 30
0.0
 40
7.0500002
100
AcDbArc
 50
221.5807952999997
 51
228.4192046999989
  0
ARC
  5
2ADC
330
1F
100
AcDbEntity
  8
Z_OM_OUTLINE
100
AcDbCircle
 10
580.4360242565154
 20
556.7631590839186
 30
0.0
 40
0.2
100
AcDbArc
 50
41.58081049998902
 51
129.9999999999976
  0
ARC
  5
2ADD
330
1F
100
AcDbEntity
  8
Z_OM_OUTLINE
100
AcDbCircle
 10
580.1789289565156
 20
557.0696580839186
 30
0.0
 40
0.2
100
AcDbArc
 50
218.4192046999898
 51
309.9999999999976
  0
ARC
  5
2ADE
330
1F
100
AcDbEntity
  8
Z_OM_OUTLINE
100
AcDbCircle
 10
585.8592267565154
 20
561.5748616839185
 30
0.0
 40
7.449999799999997
100
AcDbArc
 50
211.5807952999998
 51
218.4192047000002
  0
ARC
  5
2ADF
330
1F
100
AcDbEntity
  8
Z_OM_OUTLINE
100
AcDbCircle
 10
579.6829267565156
 20
557.7780511839184
 30
0.0
 40
0.2
100
AcDbArc
 50
119.9999999999997
 51
211.5807953000041
  0
ARC
  5
2AE0
330
1F
100
AcDbEntity
  8
Z_OM_OUTLINE
100
AcDbCircle
 10
579.4829297565155
 20
558.1244602839186
 30
0.0
 40
0.2
100
AcDbArc
 50
299.9999999999996
 51
28.41918950000214
  0
ARC
  5
2AE1
330
1F
100
AcDbEntity
  8
Z_OM_OUTLINE
100
AcDbCircle
 10
585.8592267565154
 20
561.5748616839185
 30
0.0
 40
7.0500002
100
AcDbArc
 50
201.5807952999995
 51
208.4192046999994
  0
ARC
  5
2AE2
330
1F
100
AcDbEntity
  8
Z_OM_OUTLINE
100
AcDbCircle
 10
579.1174359565157
 20
558.9081592839185
 30
0.0
 40
0.2
100
AcDbArc
 50
21.58081049998819
 51
109.9999999999914
  0
ARC
  5
2AE3
330
1F
100
AcDbEntity
  8
Z_OM_OUTLINE
100
AcDbCircle
 10
578.9806256565156
 20
559.2840602839186
 30
0.0
 40
0.2
100
AcDbArc
 50
198.4192047000064
 51
289.9999999999915
  0
ARC
  5
2AE4
330
1F
100
AcDbEntity
  8
Z_OM_OUTLINE
100
AcDbCircle
 10
585.8592267565154
 20
561.5748616839185
 30
0.0
 40
7.449999799999997
100
AcDbArc
 50
191.5807952999997
 51
198.4192046999995
  0
ARC
  5
2AE5
330
1F
100
AcDbEntity
  8
Z_OM_OUTLINE
100
AcDbCircle
 10
578.7568250565157
 20
560.1193481839186
 30
0.0
 40
0.2
100
AcDbArc
 50
100.0000000000009
 51
191.5807953000234
  0
ARC
  5
2AE6
330
1F
100
AcDbEntity
  8
Z_OM_OUTLINE
100
AcDbCircle
 10
578.6873365565154
 20
560.5133612839185
 30
0.0
 40
0.2
100
AcDbArc
 50
280.0000000000009
 51
8.419189499998084
  0
ARC
  5
2AE7
330
1F
100
AcDbEntity
  8
Z_OM_OUTLINE
100
AcDbCircle
 10
585.8592267565154
 20
561.5748616839185
 30
0.0
 40
7.0500002
100
AcDbArc
 50
181.5807953
 51
188.4192046999986
  0
ARC
  5
2AE8
330
1F
100
AcDbEntity
  8
Z_OM_OUTLINE
100
AcDbCircle
 10
578.6120343565155
 20
561.3748608839186
 30
0.0
 40
0.2
100
AcDbArc
 50
1.580811000016641
 51
90.0
  0
ARC
  5
2AE9
330
1F
100
AcDbEntity
  8
Z_OM_OUTLINE
100
AcDbCircle
 10
578.6120343565155
 20
561.7748586839186
 30
0.0
 40
0.2
100
AcDbArc
 50
178.4192046999896
 51
270.0
  0
ARC
  5
2AEA
330
1F
100
AcDbEntity
  8
Z_OM_OUTLINE
100
AcDbCircle
 10
585.8592267565154
 20
561.5748616839185
 30
0.0
 40
7.449999799999997
100
AcDbArc
 50
171.5807953000001
 51
178.4192046999996
  0
ARC
  5
2AEB
330
1F
100
AcDbEntity
  8
Z_OM_OUTLINE
100
AcDbCircle
 10
578.6873365565154
 20
562.6363581839187
 30
0.0
 40
0.2
100
AcDbArc
 50
79.99999999999912
 51
171.5807953000243
  0
ARC
  5
2AEC
330
1F
100
AcDbEntity
  8
Z_OM_OUTLINE
100
AcDbCircle
 10
578.7568250565157
 20
563.0302602839186
 30
0.0
 40
0.2
100
AcDbArc
 50
259.9999999999991
 51
348.4191894999897
  0
ARC
  5
2AED
330
1F
100
AcDbEntity
  8
Z_OM_OUTLINE
100
AcDbCircle
 10
585.8592267565154
 20
561.5748616839185
 30
0.0
 40
7.0500002
100
AcDbArc
 50
161.5807952999988
 51
168.4192046999994
  0
ARC
  5
2AEE
330
1F
100
AcDbEntity
  8
Z_OM_OUTLINE
100
AcDbCircle
 10
578.9806256565156
 20
563.8655612839186
 30
0.0
 40
0.2
100
AcDbArc
 50
341.5808104999936
 51
70.00000000000852
  0
ARC
  5
2AEF
330
1F
100
AcDbEntity
  8
Z_OM_OUTLINE
100
AcDbCircle
 10
579.1174359565157
 20
564.2414612839186
 30
0.0
 40
0.2
100
AcDbArc
 50
158.4192047000001
 51
250.0000000000085
  0
ARC
  5
2AF0
330
1F
100
AcDbEntity
  8
Z_OM_OUTLINE
100
AcDbCircle
 10
585.8592267565154
 20
561.5748616839185
 30
0.0
 40
7.449999799999997
100
AcDbArc
 50
151.5807953
 51
158.4192046999993
  0
ARC
  5
2AF1
330
1F
100
AcDbEntity
  8
Z_OM_OUTLINE
100
AcDbCircle
 10
579.4829297565155
 20
565.0252511839186
 30
0.0
 40
0.2
100
AcDbArc
 50
60.00000000000032
 51
151.580795300007
  0
ARC
  5
2AF2
330
1F
100
AcDbEntity
  8
Z_OM_OUTLINE
100
AcDbCircle
 10
579.6829267565156
 20
565.3716602839185
 30
0.0
 40
0.2
100
AcDbArc
 50
239.999999999984
 51
328.419189500024
  0
ARC
  5
2AF3
330
1F
100
AcDbEntity
  8
Z_OM_OUTLINE
100
AcDbCircle
 10
585.8592267565154
 20
561.5748616839185
 30
0.0
 40
7.0500002
100
AcDbArc
 50
141.5807952999991
 51
148.4192046999988
  0
ARC
  5
2AF4
330
1F
100
AcDbEntity
  8
Z_OM_OUTLINE
100
AcDbCircle
 10
580.1789289565156
 20
566.0800612839185
 30
0.0
 40
0.2
100
AcDbArc
 50
321.5808105000045
 51
50.00000000000239
  0
ARC
  5
2AF5
330
1F
100
AcDbEntity
  8
Z_OM_OUTLINE
100
AcDbCircle
 10
580.4360242565154
 20
566.3864691839186
 30
0.0
 40
0.2
100
AcDbArc
 50
138.4192046999862
 51
230.0000000000025
  0
ARC
  5
2AF6
330
1F
100
AcDbEntity
  8
Z_OM_OUTLINE
100
AcDbCircle
 10
585.8592267565154
 20
561.5748616839185
 30
0.0
 40
7.449999799999997
100
AcDbArc
 50
131.5807952999993
 51
138.4192046999994
  0
ARC
  5
2AF7
330
1F
100
AcDbEntity
  8
Z_OM_OUTLINE
100
AcDbCircle
 10
581.0476270565154
 20
566.9979612839186
 30
0.0
 40
0.2
100
AcDbArc
 50
39.9999999999976
 51
131.5807952999678
  0
ARC
  5
2AF8
330
1F
100
AcDbEntity
  8
Z_OM_OUTLINE
100
AcDbCircle
 10
581.3540235565154
 20
567.2550599839186
 30
0.0
 40
0.2
100
AcDbArc
 50
219.9999999999976
 51
308.4191894999955
  0
ARC
  5
2AF9
330
1F
100
AcDbEntity
  8
Z_OM_OUTLINE
100
AcDbCircle
 10
585.8592267565154
 20
561.5748616839185
 30
0.0
 40
7.0500002
100
AcDbArc
 50
121.5808028999994
 51
128.4192047000001
  0
ARC
  5
2AFA
330
1F
100
AcDbEntity
  8
Z_OM_OUTLINE
100
AcDbCircle
 10
582.0624280565156
 20
567.7511622839185
 30
0.0
 40
0.2
100
AcDbArc
 50
301.5808105000208
 51
30.00000000001596
  0
ARC
  5
2AFB
330
1F
100
AcDbEntity
  8
Z_OM_OUTLINE
100
AcDbCircle
 10
582.4088330565156
 20
567.9511592839186
 30
0.0
 40
0.2
100
AcDbArc
 50
118.4191970999897
 51
209.9999999999996
  0
ARC
  5
2AFC
330
1F
100
AcDbEntity
  8
Z_OM_OUTLINE
100
AcDbCircle
 10
585.8592267565154
 20
561.5748616839185
 30
0.0
 40
7.449999799999997
100
AcDbArc
 50
111.5808028999994
 51
118.4191970999993
  0
ARC
  5
2AFD
330
1F
100
AcDbEntity
  8
Z_OM_OUTLINE
100
AcDbCircle
 10
583.1926313565154
 20
568.3166601839186
 30
0.0
 40
0.2
100
AcDbArc
 50
19.99999999999147
 51
111.5808028999729
  0
ARC
  5
2AFE
330
1F
100
AcDbEntity
  8
Z_OM_OUTLINE
100
AcDbCircle
 10
583.5684247565154
 20
568.4534590839185
 30
0.0
 40
0.2
100
AcDbArc
 50
199.9999999999914
 51
288.4191895000064
  0
ARC
  5
2AFF
330
1F
100
AcDbEntity
  8
Z_OM_OUTLINE
100
AcDbCircle
 10
585.8592267565154
 20
561.5748616839185
 30
0.0
 40
7.0500002
100
AcDbArc
 50
101.5808028999997
 51
108.4191970999999
  0
ARC
  5
2B00
330
1F
100
AcDbEntity
  8
Z_OM_OUTLINE
100
AcDbCircle
 10
584.4038282565154
 20
568.6772482839186
 30
0.0
 40
0.2
100
AcDbArc
 50
281.5808105000103
 51
10.00000000000087
  0
ARC
  5
2B01
330
1F
100
AcDbEntity
  8
Z_OM_OUTLINE
100
AcDbCircle
 10
584.7977338565156
 20
568.7466600839186
 30
0.0
 40
0.2
100
AcDbArc
 50
98.4191894999981
 51
190.0000000000008
  0
ARC
  5
2B02
330
1F
100
AcDbEntity
  8
Z_OM_OUTLINE
100
AcDbCircle
 10
585.8592267565154
 20
561.5748616839185
 30
0.0
 40
7.449999799999997
100
AcDbArc
 50
91.58081049999955
 51
98.41918949999996
  0
ARC
  5
2B03
330
1F
100
AcDbEntity
  8
Z_OM_OUTLINE
100
AcDbCircle
 10
585.6592298565154
 20
568.8220622839186
 30
0.0
 40
0.2
100
AcDbArc
 50
0.0
 51
91.58081049999131
  0
ARC
  5
2B04
330
1F
100
AcDbEntity
  8
Z_OM_OUTLINE
100
AcDbCircle
 10
586.0592237565156
 20
568.8220622839186
 30
0.0
 40
0.2
100
AcDbArc
 50
180.0
 51
268.4191895000087
  0
ARC
  5
2B05
330
1F
100
AcDbEntity
  8
Z_OM_OUTLINE
100
AcDbCircle
 10
585.8592267565154
 20
561.5748616839185
 30
0.0
 40
7.0500002
100
AcDbArc
 50
81.58081049999976
 51
88.41918949999962
  0
ARC
  5
2B06
330
1F
100
AcDbEntity
  8
Z_OM_OUTLINE
100
AcDbCircle
 10
586.9207349565156
 20
568.7466600839186
 30
0.0
 40
0.2
100
AcDbArc
 50
261.5808105000019
 51
349.9999999999992
  0
ARC
  5
2B07
330
1F
100
AcDbEntity
  8
Z_OM_OUTLINE
100
AcDbCircle
 10
587.3146253565156
 20
568.6772482839186
 30
0.0
 40
0.2
100
AcDbArc
 50
78.41918950002167
 51
169.9999999999991
  0
ARC
  5
2B08
330
1F
100
AcDbEntity
  8
Z_OM_OUTLINE
100
AcDbCircle
 10
585.8592267565154
 20
561.5748616839185
 30
0.0
 40
7.449999799999997
100
AcDbArc
 50
71.58081049999956
 51
78.41918949999976
  0
ARC
  5
2B09
330
1F
100
AcDbEntity
  8
Z_OM_OUTLINE
100
AcDbCircle
 10
588.1500287565155
 20
568.4534590839185
 30
0.0
 40
0.2
100
AcDbArc
 50
340.0000000000085
 51
71.58081049999356
  0
ARC
  5
2B0A
330
1F
100
AcDbEntity
  8
Z_OM_OUTLINE
100
AcDbCircle
 10
588.5258374565155
 20
568.3166601839186
 30
0.0
 40
0.2
100
AcDbArc
 50
160.0000000000085
 51
248.4192047
  0
ARC
  5
2B0B
330
1F
100
AcDbEntity
  8
Z_OM_OUTLINE
100
AcDbCircle
 10
585.8592267565154
 20
561.5748616839185
 30
0.0
 40
7.0500002
100
AcDbArc
 50
61.58081049999911
 51
68.41918949999936
  0
ARC
  5
2B0C
330
1F
100
AcDbEntity
  8
Z_OM_OUTLINE
100
AcDbCircle
 10
589.3096356565156
 20
567.9511592839186
 30
0.0
 40
0.2
100
AcDbArc
 50
241.5807952999784
 51
329.999999999984
  0
ARC
  5
2B0D
330
1F
100
AcDbEntity
  8
Z_OM_OUTLINE
100
AcDbCircle
 10
589.6560254565156
 20
567.7511622839185
 30
0.0
 40
0.2
100
AcDbArc
 50
58.419189500024
 51
150.0000000000003
  0
ARC
  5
2B0E
330
1F
100
AcDbEntity
  8
Z_OM_OUTLINE
100
AcDbCircle
 10
585.8592267565154
 20
561.5748616839185
 30
0.0
 40
7.449999799999997
100
AcDbArc
 50
51.58081050000022
 51
58.41918950000017
  0
ARC
  5
2B0F
330
1F
100
AcDbEntity
  8
Z_OM_OUTLINE
100
AcDbCircle
 10
590.3644300565156
 20
567.2550599839186
 30
0.0
 40
0.2
100
AcDbArc
 50
320.0000000000024
 51
51.58081050000443
  0
ARC
  5
2B10
330
1F
100
AcDbEntity
  8
Z_OM_OUTLINE
100
AcDbCircle
 10
590.6708264565155
 20
566.9979612839186
 30
0.0
 40
0.2
100
AcDbArc
 50
140.0000000000024
 51
228.4192047000322
  0
ARC
  5
2B11
330
1F
100
AcDbEntity
  8
Z_OM_OUTLINE
100
AcDbCircle
 10
585.8592267565154
 20
561.5748616839185
 30
0.0
 40
7.0500002
100
AcDbArc
 50
41.58081050000036
 51
48.41918950000032
  0
ARC
  5
2B12
330
1F
100
AcDbEntity
  8
Z_OM_OUTLINE
100
AcDbCircle
 10
591.2824292565154
 20
566.3864691839186
 30
0.0
 40
0.2
100
AcDbArc
 50
221.5807952999894
 51
309.9999999999976
  0
ARC
  5
2B13
330
1F
100
AcDbEntity
  8
Z_OM_OUTLINE
100
AcDbCircle
 10
591.5395246565156
 20
566.0800612839185
 30
0.0
 40
0.2
100
AcDbArc
 50
38.41918949999556
 51
129.9999999999976
  0
ARC
  5
2B14
330
1F
100
AcDbEntity
  8
Z_OM_OUTLINE
100
AcDbCircle
 10
585.8592267565154
 20
561.5748616839185
 30
0.0
 40
7.449999799999997
100
AcDbArc
 50
31.58081049999984
 51
38.41918950000047
  0
LINE
  5
2B15
330
1F
100
AcDbEntity
  8
Z_OM_OUTLINE
100
AcDbLine
 10
585.4849286565155
 20
562.2819367839185
 30
0.0
 11
585.6443372565155
 21
562.1224879839185
 31
0.0
  0
LINE
  5
2B16
330
1F
100
AcDbEntity
  8
Z_OM_OUTLINE
100
AcDbLine
 10
585.3640332565155
 20
562.2032057839184
 30
0.0
 11
585.5151258565156
 21
562.0520221839185
 31
0.0
  0
LINE
  5
2B17
330
1F
100
AcDbEntity
  8
Z_OM_OUTLINE
100
AcDbLine
 10
585.9756360565155
 20
561.5915222839186
 30
0.0
 11
586.2347303565154
 21
561.3323993839185
 31
0.0
  0
LINE
  5
2B18
330
1F
100
AcDbEntity
  8
Z_OM_OUTLINE
100
AcDbLine
 10
585.7567334565154
 20
562.0100497839185
 30
0.0
 11
586.2943311565154
 21
561.4724689839185
 31
0.0
  0
LINE
  5
2B19
330
1F
100
AcDbEntity
  8
Z_OM_OUTLINE
100
AcDbLine
 10
585.6167340565156
 20
561.9504703839185
 30
0.0
 11
585.8758283565156
 21
561.6913475839186
 31
0.0
  0
LINE
  5
2B1A
330
1F
100
AcDbEntity
  8
Z_OM_OUTLINE
100
AcDbLine
 10
586.3363233565155
 20
561.2308476839185
 30
0.0
 11
586.4875226565154
 21
561.0796747839185
 31
0.0
  0
LINE
  5
2B1B
330
1F
100
AcDbEntity
  8
Z_OM_OUTLINE
100
AcDbLine
 10
585.9756360565155
 20
561.5915222839186
 30
0.0
 11
585.5969281565156
 21
561.2128214839185
 31
0.0
  0
LINE
  5
2B1C
330
1F
100
AcDbEntity
  8
Z_OM_OUTLINE
100
AcDbLine
 10
586.4068341565155
 20
561.3600414839185
 30
0.0
 11
586.5662274565155
 21
561.2005927839184
 31
0.0
  0
LINE
  5
2B1D
330
1F
100
AcDbEntity
  8
Z_OM_OUTLINE
100
AcDbLine
 10
585.4961286565155
 20
561.1120368839185
 30
0.0
 11
585.3456311565155
 21
560.9615017839185
 31
0.0
  0
LINE
  5
2B1E
330
1F
100
AcDbEntity
  8
Z_OM_OUTLINE
100
AcDbLine
 10
585.8758283565156
 20
561.6913475839186
 30
0.0
 11
585.4971356565155
 21
561.3126467839186
 31
0.0
  0
LINE
  5
2B1F
330
1F
100
AcDbEntity
  8
Z_OM_OUTLINE
100
AcDbLine
 10
585.3963361565155
 20
561.2118620839186
 30
0.0
 11
585.2458234565156
 21
561.0613269839185
 31
0.0
  0
CIRCLE
  5
2B20
330
1F
100
AcDbEntity
  8
Z_OM_OUTLINE
100
AcDbCircle
 10
585.8592267565154
 20
561.5748852839185
 30
0.0
 40
0.7999991999999999
  0
ARC
  5
2B21
330
1F
100
AcDbEntity
  8
Z_OM_OUTLINE
100
AcDbCircle
 10
585.8592267565154
 20
561.5748852839185
 30
0.0
 40
0.4470582000000002
100
AcDbArc
 50
314.9995117000011
 51
327.1528015000046
  0
ARC
  5
2B22
330
1F
100
AcDbEntity
  8
Z_OM_OUTLINE
100
AcDbCircle
 10
585.8592267565154
 20
561.5748852839185
 30
0.0
 40
0.447058
100
AcDbArc
 50
234.0836945000014
 51
314.9995116999991
  0
ARC
  5
2B23
330
1F
100
AcDbEntity
  8
Z_OM_OUTLINE
100
AcDbCircle
 10
585.8592267565154
 20
561.5748852839185
 30
0.0
 40
0.5882344000000001
100
AcDbArc
 50
338.5777893000043
 51
111.4219971000011
  0
ARC
  5
2B24
330
1F
100
AcDbEntity
  8
Z_OM_OUTLINE
100
AcDbCircle
 10
585.8592267565154
 20
561.5748852839185
 30
0.0
 40
0.447058
100
AcDbArc
 50
346.7565002000061
 51
103.2433014000017
  0
ARC
  5
2B25
330
1F
100
AcDbEntity
  8
Z_OM_OUTLINE
100
AcDbCircle
 10
585.8592267565154
 20
561.5748852839185
 30
0.0
 40
0.5882344000000001
100
AcDbArc
 50
125.7935027999952
 51
218.1067046999952
  0
ARC
  5
2B26
330
1F
100
AcDbEntity
  8
Z_OM_OUTLINE
100
AcDbCircle
 10
585.8592267565154
 20
561.5748852839185
 30
0.0
 40
0.5882344000000001
100
AcDbArc
 50
231.891098000006
 51
324.2063904000058
  0
ARC
  5
2B27
330
1F
100
AcDbEntity
  8
Z_OM_OUTLINE
100
AcDbCircle
 10
585.8592267565154
 20
561.5748852839185
 30
0.0
 40
0.447058
100
AcDbArc
 50
122.847000099999
 51
215.9140930000089
  0
LINE
  5
2B28
330
1F
100
AcDbEntity
  8
Z_OM_OUTLINE
100
AcDbLine
 10
585.4849286565155
 20
562.2819252839185
 30
0.0
 11
585.6443372565155
 21
562.1224734839186
 31
0.0
  0
LINE
  5
2B29
330
1F
100
AcDbEntity
  8
Z_OM_OUTLINE
100
AcDbLine
 10
585.3963361565155
 20
561.2118707839186
 30
0.0
 11
585.2458234565156
 21
561.0613358839185
 31
0.0
  0
LINE
  5
2B2A
330
1F
100
AcDbEntity
  8
Z_OM_OUTLINE
100
AcDbLine
 10
585.9756360565155
 20
561.5915135839186
 30
0.0
 11
586.2347303565154
 21
561.3324018839185
 31
0.0
  0
LINE
  5
2B2B
330
1F
100
AcDbEntity
  8
Z_OM_OUTLINE
100
AcDbLine
 10
585.4961286565155
 20
561.1120281839186
 30
0.0
 11
585.3456311565155
 21
560.9614930839184
 31
0.0
  0
LINE
  5
2B2C
330
1F
100
AcDbEntity
  8
Z_OM_OUTLINE
100
AcDbLine
 10
585.9756360565155
 20
561.5915135839186
 30
0.0
 11
585.5969281565156
 21
561.2128020839186
 31
0.0
  0
LINE
  5
2B2D
330
1F
100
AcDbEntity
  8
Z_OM_OUTLINE
100
AcDbLine
 10
586.3363233565155
 20
561.2308529839185
 30
0.0
 11
586.4875226565154
 21
561.0796876839185
 31
0.0
  0
LINE
  5
2B2E
330
1F
100
AcDbEntity
  8
Z_OM_OUTLINE
100
AcDbLine
 10
585.6167340565156
 20
561.9504681839186
 30
0.0
 11
585.8758283565156
 21
561.6913562839186
 31
0.0
  0
LINE
  5
2B2F
330
1F
100
AcDbEntity
  8
Z_OM_OUTLINE
100
AcDbLine
 10
586.4068341565155
 20
561.3600453839185
 30
0.0
 11
586.5662274565155
 21
561.2005935839185
 31
0.0
  0
LINE
  5
2B30
330
1F
100
AcDbEntity
  8
Z_OM_OUTLINE
100
AcDbLine
 10
585.8758283565156
 20
561.6913562839186
 30
0.0
 11
585.4971356565155
 21
561.3126447839185
 31
0.0
  0
LINE
  5
2B31
330
1F
100
AcDbEntity
  8
Z_OM_OUTLINE
100
AcDbLine
 10
585.3640332565155
 20
562.2031821839185
 30
0.0
 11
585.5151258565156
 21
562.0520168839185
 31
0.0
  0
LINE
  5
2B32
330
1F
100
AcDbEntity
  8
Z_OM_OUTLINE
100
AcDbLine
 10
585.7567334565154
 20
562.0100588839185
 30
0.0
 11
586.2943311565154
 21
561.4724598839185
 31
0.0
  0
ARC
  5
2B33
330
1F
100
AcDbEntity
  8
Z_OM_OUTLINE
100
AcDbCircle
 10
585.8592267565154
 20
561.5748852839185
 30
0.0
 40
0.5882327
100
AcDbArc
 50
231.8910979999974
 51
324.2063904000088
  0
ARC
  5
2B34
330
1F
100
AcDbEntity
  8
Z_OM_OUTLINE
100
AcDbCircle
 10
585.8592267565154
 20
561.5748852839185
 30
0.0
 40
0.4470569000000002
100
AcDbArc
 50
234.0836944999926
 51
314.9995117000031
  0
ARC
  5
2B35
330
1F
100
AcDbEntity
  8
Z_OM_OUTLINE
100
AcDbCircle
 10
585.8592267565154
 20
561.5748852839185
 30
0.0
 40
0.4470569000000002
100
AcDbArc
 50
122.8470001000023
 51
215.9140930000091
  0
ARC
  5
2B36
330
1F
100
AcDbEntity
  8
Z_OM_OUTLINE
100
AcDbCircle
 10
585.8592267565154
 20
561.5748852839185
 30
0.0
 40
0.5882327
100
AcDbArc
 50
125.7935028000002
 51
218.1067047000023
  0
ARC
  5
2B37
330
1F
100
AcDbEntity
  8
Z_OM_OUTLINE
100
AcDbCircle
 10
585.8592267565154
 20
561.5748852839185
 30
0.0
 40
0.4470569000000002
100
AcDbArc
 50
346.7565002000041
 51
103.2433013999961
  0
ARC
  5
2B38
330
1F
100
AcDbEntity
  8
Z_OM_OUTLINE
100
AcDbCircle
 10
585.8592267565154
 20
561.5748852839185
 30
0.0
 40
0.5882327
100
AcDbArc
 50
338.5777892999954
 51
111.4219971000034
  0
ARC
  5
2B39
330
1F
100
AcDbEntity
  8
Z_OM_OUTLINE
100
AcDbCircle
 10
585.8592267565154
 20
561.5748852839185
 30
0.0
 40
0.4470569000000002
100
AcDbArc
 50
314.9995117000031
 51
327.1528015000051
  0
ARC
  5
2B3A
330
1F
100
AcDbEntity
  8
Z_OM_OUTLINE
100
AcDbCircle
 10
617.4024750016967
 20
554.4123378503265
 30
0.0
 40
0.2398780416532019
100
AcDbArc
 50
56.09974823126663
 51
91.03725346103423
  0
ARC
  5
2B3B
330
1F
100
AcDbEntity
  8
Z_OM_OUTLINE
100
AcDbCircle
 10
617.7019980157756
 20
554.7433185596551
 30
0.0
 40
0.2117996643044357
100
AcDbArc
 50
218.5107801965427
 51
269.2636994758184
  0
ARC
  5
2B3C
330
1F
100
AcDbEntity
  8
Z_OM_OUTLINE
100
AcDbCircle
 10
617.2953903145241
 20
554.4922731769239
 30
0.0
 40
0.2040249208652975
100
AcDbArc
 50
1.949198872551819
 51
51.0030629557308
  0
ARC
  5
2B3D
330
1F
100
AcDbEntity
  8
Z_OM_OUTLINE
100
AcDbCircle
 10
617.6972771991946
 20
554.4995536967818
 30
0.0
 40
0.1980071241074937
100
AcDbArc
 50
180.586868188873
 51
270.5558091953179
  0
LINE
  5
2B3E
330
1F
100
AcDbEntity
  8
Z_OM_OUTLINE
100
AcDbLine
 10
615.0992701810707
 20
554.6721379839185
 30
0.0
 11
615.0146754810707
 21
554.6934363839186
 31
0.0
  0
LINE
  5
2B3F
330
1F
100
AcDbEntity
  8
Z_OM_OUTLINE
100
AcDbLine
 10
615.0146754810707
 20
554.6934363839186
 30
0.0
 11
614.6992762810707
 21
554.9111373839187
 31
0.0
  0
LINE
  5
2B40
330
1F
100
AcDbEntity
  8
Z_OM_OUTLINE
100
AcDbLine
 10
614.6992762810707
 20
555.5940363839185
 30
0.0
 11
615.0992701810707
 21
555.0477492839186
 31
0.0
  0
LINE
  5
2B41
330
1F
100
AcDbEntity
  8
Z_OM_OUTLINE
100
AcDbLine
 10
615.0992701810707
 20
556.0271451839184
 30
0.0
 11
614.6992762810707
 21
556.0763361839185
 31
0.0
  0
LINE
  5
2B42
330
1F
100
AcDbEntity
  8
Z_OM_OUTLINE
100
AcDbLine
 10
624.8992732810708
 20
556.0271451839184
 30
0.0
 11
625.6192744810707
 21
556.0763361839185
 31
0.0
  0
LINE
  5
2B43
330
1F
100
AcDbEntity
  8
Z_OM_OUTLINE
100
AcDbLine
 10
625.6192744810707
 20
555.5940363839185
 30
0.0
 11
624.8996699810708
 21
555.0521361839185
 31
0.0
  0
LINE
  5
2B44
330
1F
100
AcDbEntity
  8
Z_OM_OUTLINE
100
AcDbLine
 10
625.6192744810707
 20
557.2189371839185
 30
0.0
 11
624.8992732810708
 21
556.6555373839186
 31
0.0
  0
LINE
  5
2B45
330
1F
100
AcDbEntity
  8
Z_OM_OUTLINE
100
AcDbLine
 10
624.8992732810708
 20
558.0543482839185
 30
0.0
 11
625.6192744810707
 21
557.9078481839186
 31
0.0
  0
LINE
  5
2B46
330
1F
100
AcDbEntity
  8
Z_OM_OUTLINE
100
AcDbLine
 10
625.6192744810707
 20
559.3723492839187
 30
0.0
 11
624.8992732810708
 21
558.8597371839186
 31
0.0
  0
LINE
  5
2B47
330
1F
100
AcDbEntity
  8
Z_OM_OUTLINE
100
AcDbLine
 10
624.8992732810708
 20
560.5091362839186
 30
0.0
 11
625.6192744810707
 21
560.1846392839186
 31
0.0
  0
LINE
  5
2B48
330
1F
100
AcDbEntity
  8
Z_OM_OUTLINE
100
AcDbLine
 10
625.6192744810707
 20
561.7944376839187
 30
0.0
 11
624.8992732810708
 21
561.3944360839187
 31
0.0
  0
LINE
  5
2B49
330
1F
100
AcDbEntity
  8
Z_OM_OUTLINE
100
AcDbLine
 10
625.6192744810707
 20
562.6321371839186
 30
0.0
 11
624.8992732810708
 21
563.0955392839186
 31
0.0
  0
LINE
  5
2B4A
330
1F
100
AcDbEntity
  8
Z_OM_OUTLINE
100
AcDbLine
 10
625.6192744810707
 20
564.1930391839186
 30
0.0
 11
624.8992732810708
 21
563.9538381839185
 31
0.0
  0
LINE
  5
2B4B
330
1F
100
AcDbEntity
  8
Z_OM_OUTLINE
100
AcDbLine
 10
625.6192744810707
 20
564.9551351839185
 30
0.0
 11
624.8992732810708
 21
565.5014381839186
 31
0.0
  0
LINE
  5
2B4C
330
1F
100
AcDbEntity
  8
Z_OM_OUTLINE
100
AcDbLine
 10
625.6192744810707
 20
567.8003389839187
 30
0.0
 11
624.8992732810708
 21
567.9466359839185
 31
0.0
  0
LINE
  5
2B4D
330
1F
100
AcDbEntity
  8
Z_OM_OUTLINE
100
AcDbLine
 10
624.8992732810708
 20
568.8982350839186
 30
0.0
 11
625.6192744810707
 21
568.5739481839187
 31
0.0
  0
LINE
  5
2B4E
330
1F
100
AcDbEntity
  8
Z_OM_OUTLINE
100
AcDbLine
 10
625.7992671810708
 20
568.5499379839186
 30
0.0
 11
624.9000666810708
 21
569.0249247839187
 31
0.0
  0
LINE
  5
2B4F
330
1F
100
AcDbEntity
  8
Z_OM_OUTLINE
100
AcDbLine
 10
625.6192744810707
 20
568.1557390839186
 30
0.0
 11
624.8992732810708
 21
568.6682360839186
 31
0.0
  0
LINE
  5
2B50
330
1F
100
AcDbEntity
  8
Z_OM_OUTLINE
100
AcDbLine
 10
614.6992762810707
 20
568.5739481839187
 30
0.0
 11
615.0992701810707
 21
568.8982350839186
 31
0.0
  0
LINE
  5
2B51
330
1F
100
AcDbEntity
  8
Z_OM_OUTLINE
100
AcDbLine
 10
614.6992762810707
 20
567.8003389839187
 30
0.0
 11
615.0992701810707
 21
567.9466359839185
 31
0.0
  0
LINE
  5
2B52
330
1F
100
AcDbEntity
  8
Z_OM_OUTLINE
100
AcDbLine
 10
615.0992701810707
 20
567.4368360839186
 30
0.0
 11
614.7047733940849
 21
566.8734362839186
 31
0.0
  0
ARC
  5
2B53
330
1F
100
AcDbEntity
  8
Z_OM_OUTLINE
100
AcDbCircle
 10
617.6770560329206
 20
566.3607347832201
 30
0.0
 40
0.1848963536338317
100
AcDbArc
 50
83.10464609251821
 51
164.0482660657401
  0
ARC
  5
2B54
330
1F
100
AcDbEntity
  8
Z_OM_OUTLINE
100
AcDbCircle
 10
617.3207842756052
 20
566.505894108157
 30
0.0
 40
0.2018946003903253
100
AcDbArc
 50
263.8820326960466
 51
332.1410238812489
  0
ARC
  5
2B55
330
1F
100
AcDbEntity
  8
Z_OM_OUTLINE
100
AcDbCircle
 10
617.6812970964447
 20
566.9903752116359
 30
0.0
 40
0.183155657490935
100
AcDbArc
 50
84.36657852573061
 51
173.6098263694827
  0
ELLIPSE
  5
2B56
330
1F
100
AcDbEntity
  8
Z_OM_OUTLINE
100
AcDbEllipse
 10
617.2992671810708
 20
567.0125372839186
 30
0.0
 11
0.2000285250336689
 21
0.0000000000000006
 31
0.0
210
0.0
220
0.0
230
1.0
 40
0.6954058176281759
 41
4.712388980384688
 42
7.853981633974481
  0
ARC
  5
2B57
330
1F
100
AcDbEntity
  8
Z_OM_OUTLINE
100
AcDbCircle
 10
617.3497061636178
 20
567.0782843410433
 30
0.0
 40
0.3620820946682655
100
AcDbArc
 50
15.10621590409933
 51
98.00749358973472
  0
LINE
  5
2B58
330
1F
100
AcDbEntity
  8
Z_OM_OUTLINE
100
AcDbLine
 10
614.6992762810707
 20
566.3051493839186
 30
0.0
 11
615.0992701810707
 21
566.2294390839186
 31
0.0
  0
LINE
  5
2B59
330
1F
100
AcDbEntity
  8
Z_OM_OUTLINE
100
AcDbLine
 10
614.6992762810707
 20
564.1930391839186
 30
0.0
 11
615.0992701810707
 21
563.9538381839185
 31
0.0
  0
LINE
  5
2B5A
330
1F
100
AcDbEntity
  8
Z_OM_OUTLINE
100
AcDbLine
 10
615.0992701810707
 20
563.0955392839186
 30
0.0
 11
614.6992762810707
 21
562.6321371839186
 31
0.0
  0
LINE
  5
2B5B
330
1F
100
AcDbEntity
  8
Z_OM_OUTLINE
100
AcDbLine
 10
614.6992762810707
 20
561.7944376839187
 30
0.0
 11
615.0992701810707
 21
561.3944360839187
 31
0.0
  0
LINE
  5
2B5C
330
1F
100
AcDbEntity
  8
Z_OM_OUTLINE
100
AcDbLine
 10
615.0992701810707
 20
560.5091362839186
 30
0.0
 11
614.6992762810707
 21
560.1846392839186
 31
0.0
  0
LINE
  5
2B5D
330
1F
100
AcDbEntity
  8
Z_OM_OUTLINE
100
AcDbLine
 10
614.6992762810707
 20
559.3723492839187
 30
0.0
 11
615.0992701810707
 21
558.8597371839186
 31
0.0
  0
LINE
  5
2B5E
330
1F
100
AcDbEntity
  8
Z_OM_OUTLINE
100
AcDbLine
 10
615.0992701810707
 20
558.0543482839185
 30
0.0
 11
614.6992762810707
 21
557.9078481839186
 31
0.0
  0
LINE
  5
2B5F
330
1F
100
AcDbEntity
  8
Z_OM_OUTLINE
100
AcDbLine
 10
614.6992762810707
 20
557.2189371839185
 30
0.0
 11
615.0992701810707
 21
556.6555373839186
 31
0.0
  0
LINE
  5
2B60
330
1F
100
AcDbEntity
  8
Z_OM_OUTLINE
100
AcDbLine
 10
649.3991664810708
 20
556.8273050839186
 30
0.0
 11
654.8992793810707
 21
557.3249251839184
 31
0.0
  0
LINE
  5
30B3
330
1F
100
AcDbEntity
  8
LAYER01
100
AcDbLine
 10
654.8992793810707
 20
565.6749251839186
 30
0.0
 11
704.8992798434992
 21
565.6749251839186
 31
0.0
  0
LINE
  5
30B4
330
1F
100
AcDbEntity
  8
LAYER01
100
AcDbLine
 10
654.8992793810707
 20
557.4749251839185
 30
0.0
 11
704.8992798434992
 21
557.4749251839185
 31
0.0
  0
LINE
  5
30B5
330
1F
100
AcDbEntity
  8
LAYER01
100
AcDbLine
 10
654.8992793810707
 20
565.6749251839186
 30
0.0
 11
654.8992793810707
 21
557.4749251839185
 31
0.0
  0
LINE
  5
33DC
330
1F
100
AcDbEntity
  8
LAYER01
100
AcDbLine
 10
709.4835323540823
 20
565.6749251839186
 30
0.0
 11
759.4835323540821
 21
565.6749251839186
 31
0.0
  0
LINE
  5
33DD
330
1F
100
AcDbEntity
  8
LAYER01
100
AcDbLine
 10
709.4835323540823
 20
557.4749251839185
 30
0.0
 11
759.4835323540821
 21
557.4749251839185
 31
0.0
  0
ELLIPSE
  5
33E1
330
1F
100
AcDbEntity
  8
LAYER01
100
AcDbEllipse
 10
704.8992798434992
 20
563.6249251839185
 30
0.0
 11
0.0
 21
2.05000000000001
 31
0.0
210
0.0
220
0.0
230
1.0
 40
0.539137556003555
 41
0.0
 42
6.283185307179585
  0
ELLIPSE
  5
340C
330
1F
100
AcDbEntity
  8
LAYER01
100
AcDbEllipse
 10
704.8992798434992
 20
559.5249251839186
 30
0.0
 11
0.0
 21
2.05000000000001
 31
0.0
210
0.0
220
0.0
230
1.0
 40
0.539137556003555
 41
3.141592653589792
 42
6.283185307179585
  0
ELLIPSE
  5
3438
330
1F
100
AcDbEntity
  8
LAYER01
100
AcDbEllipse
 10
709.4835323540823
 20
559.5249251839186
 30
0.0
 11
0.0
 21
2.05000000000001
 31
0.0
210
0.0
220
0.0
230
1.0
 40
0.539137556003555
 41
0.0
 42
6.283185307179585
  0
ELLIPSE
  5
3439
330
1F
100
AcDbEntity
  8
LAYER01
100
AcDbEllipse
 10
709.4835323540823
 20
563.6249251839185
 30
0.0
 11
0.0
 21
2.05000000000001
 31
0.0
210
0.0
220
0.0
230
1.0
 40
0.539137556003555
 41
0.0
 42
3.141592653589792
  0
DIMENSION
  5
34F7
330
1F
100
AcDbEntity
  8
LAYER01
100
AcDbDimension
  2
*D9
 10
759.4835323540821
 20
583.7770752194767
 30
0.0
 11
686.8414043175763
 21
585.6520752194767
 31
0.0
 70
    32
  1
3000
 71
     5
 42
145.2842560730114
  3
ISO-25
100
AcDbAlignedDimension
 13
614.1992762810708
 23
565.1758391839186
 33
0.0
 14
759.4835323540821
 24
565.6749251839186
 34
0.0
100
AcDbRotatedDimension
1001
ACAD
1000
DSTYLE
1002
{
1070
   286
1070
    12
1070
   284
1070
     8
1070
   147
1040
0.625
1070
    47
1040
20.0
1070
    48
1040
0.00000001
1070
    72
1070
     0
1070
    71
1070
     0
1002
}
  0
LINE
  5
3580
330
1F
100
AcDbEntity
  8
ハーネス
 62
     0
 48
10.0
100
AcDbLine
 10
773.0835323540817
 20
566.3349251839182
 30
0.0
 11
789.483532354082
 21
566.3349251839182
 31
0.0
  0
LINE
  5
3581
330
1F
100
AcDbEntity
  8
ハーネス
 62
     0
 48
10.0
100
AcDbLine
 10
772.7435323540821
 20
568.7149251839182
 30
0.0
 11
789.483532354082
 21
568.7149251839183
 31
0.0
  0
LINE
  5
3582
330
1F
100
AcDbEntity
  8
ハーネス
 62
     0
 48
10.0
100
AcDbLine
 10
772.7435323540821
 20
566.3349251839182
 30
0.0
 11
789.483532354082
 21
566.3349251839181
 31
0.0
  0
LINE
  5
3583
330
1F
100
AcDbEntity
  8
ハーネス
 62
     0
 48
10.0
100
AcDbLine
 10
772.7435323540821
 20
556.8149251839184
 30
0.0
 11
789.483532354082
 21
556.8149251839185
 31
0.0
  0
LINE
  5
3584
330
1F
100
AcDbEntity
  8
ハーネス
 62
     0
 48
10.0
100
AcDbLine
 10
772.7435323540821
 20
554.4349251839185
 30
0.0
 11
789.483532354082
 21
554.4349251839181
 31
0.0
  0
LINE
  5
3585
330
1F
100
AcDbEntity
  8
ハーネス
 62
     0
 48
10.0
100
AcDbLine
 10
773.0835323540817
 20
556.8149251839184
 30
0.0
 11
789.483532354082
 21
556.8149251839184
 31
0.0
  0
LINE
  5
3586
330
1F
100
AcDbEntity
  8
ハーネス
 62
     0
100
AcDbLine
 10
789.483532354082
 20
554.4349251839181
 30
0.0
 11
789.483532354082
 21
556.8149251839185
 31
0.0
  0
LINE
  5
3587
330
1F
100
AcDbEntity
  8
ハーネス
 62
     0
100
AcDbLine
 10
789.483532354082
 20
568.7149251839183
 30
0.0
 11
789.483532354082
 21
566.3349251839181
 31
0.0
  0
ARC
  5
3588
330
1F
100
AcDbEntity
  8
ハーネス
 62
     0
100
AcDbCircle
 10
766.0118757971829
 20
556.8149251839184
 30
0.0
 40
4.759999999999998
100
AcDbArc
 50
19.471220634481
 51
90.0
  0
ARC
  5
3589
330
1F
100
AcDbEntity
  8
ハーネス
 62
     0
100
AcDbCircle
 10
764.4989705100564
 20
554.4349251839181
 30
0.0
 40
4.759999999999998
100
AcDbArc
 50
30.00000000000479
 51
90.0
  0
ARC
  5
358A
330
1F
100
AcDbEntity
  8
ハーネス
 62
     0
100
AcDbCircle
 10
764.4989705100564
 20
568.7149251839183
 30
0.0
 40
4.759999999999998
100
AcDbArc
 50
270.0
 51
329.9999999999952
  0
ARC
  5
358B
330
1F
100
AcDbEntity
  8
ハーネス
 62
     0
100
AcDbCircle
 10
766.0118757971829
 20
566.3349251839182
 30
0.0
 40
4.759999999999998
100
AcDbArc
 50
270.0
 51
340.5287793655203
  0
ARC
  5
358C
330
1F
100
AcDbEntity
  8
ハーネス
 62
     0
100
AcDbCircle
 10
772.7435323540821
 20
559.1949251839182
 30
0.0
 40
2.379999999999999
100
AcDbArc
 50
199.4712206344779
 51
270.0
  0
ARC
  5
358D
330
1F
100
AcDbEntity
  8
ハーネス
 62
     0
100
AcDbCircle
 10
772.7435323540821
 20
559.1949251839182
 30
0.0
 40
4.759999999999998
100
AcDbArc
 50
210.0000000000029
 51
269.9999999999973
  0
ARC
  5
358E
330
1F
100
AcDbEntity
  8
ハーネス
 62
     0
100
AcDbCircle
 10
772.7435323540821
 20
563.9549251839182
 30
0.0
 40
2.379999999999999
100
AcDbArc
 50
90.0
 51
160.5287793655246
  0
ARC
  5
358F
330
1F
100
AcDbEntity
  8
ハーネス
 62
     0
100
AcDbCircle
 10
772.7435323540821
 20
563.9549251839182
 30
0.0
 40
4.759999999999998
100
AcDbArc
 50
90.0
 51
149.999999999997
  0
LINE
  5
3590
330
1F
100
AcDbEntity
  8
ハーネス
 62
     0
 48
10.0
100
AcDbLine
 10
759.4835323540821
 20
559.1949251839182
 30
0.0
 11
764.4989705100564
 21
559.1949251839182
 31
0.0
  0
LINE
  5
3591
330
1F
100
AcDbEntity
  8
ハーネス
 62
     0
 48
10.0
100
AcDbLine
 10
759.4835323540821
 20
561.5749251839186
 30
0.0
 11
766.0118757971829
 21
561.5749251839186
 31
0.0
  0
LINE
  5
3592
330
1F
100
AcDbEntity
  8
ハーネス
 62
     0
 48
10.0
100
AcDbLine
 10
759.4835323540821
 20
563.9549251839175
 30
0.0
 11
764.4989705100564
 21
563.9549251839175
 31
0.0
  0
LINE
  5
3593
330
1F
100
AcDbEntity
  8
ハーネス
 62
     0
 48
10.0
100
AcDbLine
 10
773.0835323540817
 20
561.0649251839182
 30
0.0
 11
789.483532354082
 21
561.0649251839182
 31
0.0
  0
LINE
  5
3594
330
1F
100
AcDbEntity
  8
ハーネス
 62
     0
 48
10.0
100
AcDbLine
 10
772.7435323540821
 20
558.6849251839185
 30
0.0
 11
789.483532354082
 21
558.6849251839181
 31
0.0
  0
LINE
  5
3595
330
1F
100
AcDbEntity
  8
ハーネス
 62
     0
 48
10.0
100
AcDbLine
 10
772.7435323540821
 20
561.0649251839182
 30
0.0
 11
789.483532354082
 21
561.0649251839186
 31
0.0
  0
LINE
  5
3596
330
1F
100
AcDbEntity
  8
ハーネス
 62
     0
100
AcDbLine
 10
789.483532354082
 20
558.6849251839181
 30
0.0
 11
789.483532354082
 21
561.0649251839186
 31
0.0
  0
ARC
  5
3597
330
1F
100
AcDbEntity
  8
ハーネス
 62
     0
100
AcDbCircle
 10
766.0118757971829
 20
561.0649251839182
 30
0.0
 40
4.759999999999998
100
AcDbArc
 50
19.471220634481
 51
33.61237459845966
  0
ARC
  5
3598
330
1F
100
AcDbEntity
  8
ハーネス
 62
     0
100
AcDbCircle
 10
772.7435323540821
 20
563.4449251839184
 30
0.0
 40
4.759999999999998
100
AcDbArc
 50
210.0000000000029
 51
269.9999999999973
  0
ARC
  5
3599
330
1F
100
AcDbEntity
  8
ハーネス
 62
     0
100
AcDbCircle
 10
772.7435323540821
 20
563.4449251839184
 30
0.0
 40
2.379999999999999
100
AcDbArc
 50
199.4712206344779
 51
270.0
  0
ARC
  5
359A
330
1F
100
AcDbEntity
  8
ハーネス
 62
     0
100
AcDbCircle
 10
764.4989705100564
 20
558.6849251839181
 30
0.0
 40
4.759999999999998
100
AcDbArc
 50
30.00000000000479
 51
43.81152796268986
  0
LINE
  5
359B
330
1F
100
AcDbEntity
  8
ハーネス
 62
     0
 48
10.0
100
AcDbLine
 10
772.7435323540821
 20
562.0849251839181
 30
0.0
 11
789.483532354082
 21
562.0849251839181
 31
0.0
  0
LINE
  5
359C
330
1F
100
AcDbEntity
  8
ハーネス
 62
     0
 48
10.0
100
AcDbLine
 10
772.7435323540821
 20
564.4649251839182
 30
0.0
 11
789.483532354082
 21
564.4649251839183
 31
0.0
  0
LINE
  5
359D
330
1F
100
AcDbEntity
  8
ハーネス
 62
     0
 48
10.0
100
AcDbLine
 10
773.0835323540817
 20
562.0849251839181
 30
0.0
 11
789.483532354082
 21
562.0849251839181
 31
0.0
  0
LINE
  5
359E
330
1F
100
AcDbEntity
  8
ハーネス
 62
     0
100
AcDbLine
 10
789.483532354082
 20
564.4649251839183
 30
0.0
 11
789.483532354082
 21
562.0849251839181
 31
0.0
  0
ARC
  5
359F
330
1F
100
AcDbEntity
  8
ハーネス
 62
     0
100
AcDbCircle
 10
772.7435323540821
 20
559.7049251839182
 30
0.0
 40
2.379999999999999
100
AcDbArc
 50
90.0
 51
128.2132107017471
  0
ARC
  5
35A0
330
1F
100
AcDbEntity
  8
ハーネス
 62
     0
100
AcDbCircle
 10
772.7435323540821
 20
559.7049251839182
 30
0.0
 40
4.759999999999998
100
AcDbArc
 50
90.0
 51
124.7478728781589
  0
LINE
  5
35A4
330
1F
100
AcDbEntity
  8
LAYER01
 62
     0
100
AcDbLine
 10
759.4835323540821
 20
565.6749251839186
 30
0.0
 11
759.4835323540821
 21
557.4749251839185
 31
0.0
  0
DIMENSION
  5
35E0
330
1F
100
AcDbEntity
  8
LAYER01
100
AcDbDimension
  2
*D10
 10
759.4835323540821
 20
577.1835002016976
 30
0.0
 11
774.4835323540821
 21
579.0585002016976
 31
0.0
 70
    32
 71
     5
 42
29.99999999999989
  3
ISO-25
100
AcDbAlignedDimension
 13
789.483532354082
 23
568.7149251839183
 33
0.0
 14
759.4835323540821
 24
565.6749251839186
 34
0.0
100
AcDbRotatedDimension
1001
ACAD
1000
DSTYLE
1002
{
1070
    47
1040
5.0
1070
    48
1040
5.0
1070
    72
1070
     0
1070
    71
1070
     1
1002
}
  0
LINE
  5
35ED
330
1F
100
AcDbEntity
  8
ハーネス
 62
     0
100
AcDbLine
 10
814.4835323540821
 20
568.7149251839183
 30
0.0
 11
814.4835323540821
 21
566.3349251839181
 31
0.0
  0
LINE
  5
35EE
330
1F
100
AcDbEntity
  8
ハーネス
 62
     0
100
AcDbLine
 10
814.4835323540821
 20
564.4649251839183
 30
0.0
 11
814.4835323540821
 21
562.0849251839181
 31
0.0
  0
LINE
  5
35EF
330
1F
100
AcDbEntity
  8
ハーネス
 62
     0
100
AcDbLine
 10
814.4835323540821
 20
558.6849251839181
 30
0.0
 11
814.4835323540821
 21
561.0649251839186
 31
0.0
  0
LINE
  5
35F0
330
1F
100
AcDbEntity
  8
ハーネス
 62
     0
100
AcDbLine
 10
814.4835323540821
 20
554.4349251839181
 30
0.0
 11
814.4835323540821
 21
556.8149251839185
 31
0.0
  0
LINE
  5
35F1
330
1F
100
AcDbEntity
  8
LAYER01
100
AcDbLine
 10
795.0835323540822
 20
568.7149251839183
 30
0.0
 11
814.4835323540821
 21
568.7149251839183
 31
0.0
  0
LINE
  5
35F2
330
1F
100
AcDbEntity
  8
LAYER01
100
AcDbLine
 10
794.4835323540822
 20
566.3349251839181
 30
0.0
 11
814.4835323540821
 21
566.3349251839181
 31
0.0
  0
LINE
  5
35F3
330
1F
100
AcDbEntity
  8
LAYER01
100
AcDbLine
 10
794.4835323540822
 20
564.4649251839183
 30
0.0
 11
814.4835323540821
 21
564.4649251839183
 31
0.0
  0
LINE
  5
35F4
330
1F
100
AcDbEntity
  8
LAYER01
100
AcDbLine
 10
794.4835323540822
 20
562.0849251839181
 30
0.0
 11
814.4835323540821
 21
562.0849251839181
 31
0.0
  0
LINE
  5
35F5
330
1F
100
AcDbEntity
  8
LAYER01
100
AcDbLine
 10
794.4835323540822
 20
561.0649251839186
 30
0.0
 11
814.4835323540821
 21
561.0649251839186
 31
0.0
  0
LINE
  5
35F6
330
1F
100
AcDbEntity
  8
LAYER01
100
AcDbLine
 10
794.4835323540822
 20
558.6849251839181
 30
0.0
 11
814.4835323540821
 21
558.6849251839181
 31
0.0
  0
LINE
  5
35F7
330
1F
100
AcDbEntity
  8
LAYER01
100
AcDbLine
 10
794.4835323540822
 20
556.8149251839185
 30
0.0
 11
814.4835323540821
 21
556.8149251839185
 31
0.0
  0
LINE
  5
35F8
330
1F
100
AcDbEntity
  8
LAYER01
100
AcDbLine
 10
794.4835323540822
 20
554.4349251839181
 30
0.0
 11
814.4835323540821
 21
554.4349251839181
 31
0.0
  0
DIMENSION
  5
35F9
330
1F
100
AcDbEntity
  8
LAYER01
100
AcDbDimension
  2
*D11
 10
809.483532354082
 20
583.7770752194767
 30
0.0
 11
784.4835323540821
 21
587.3187418861432
 31
0.0
 70
    32
 71
     5
 42
49.99999999999989
  3
ISO-25
100
AcDbAlignedDimension
 13
759.4835323540821
 23
565.6749251839186
 33
0.0
 14
809.483532354082
 24
568.7149251839183
 34
0.0
100
AcDbRotatedDimension
1001
ACAD
1000
DSTYLE
1002
{
1070
    47
1040
20.0
1070
    48
1040
10.0
1070
    72
1070
     0
1070
    71
1070
     1
1002
}
  0
LINE
  5
3606
330
1F
100
AcDbEntity
  8
LAYER01
100
AcDbLine
 10
794.4835323540822
 20
568.7149251839183
 30
0.0
 11
810.083532354082
 21
568.7149251839183
 31
0.0
  0
LINE
  5
3608
330
1F
100
AcDbEntity
  8
ハーネス
 62
     0
100
AcDbLine
 10
794.4835323540822
 20
554.4349251839181
 30
0.0
 11
794.4835323540822
 21
556.8149251839185
 31
0.0
  0
LINE
  5
3609
330
1F
100
AcDbEntity
  8
ハーネス
 62
     0
100
AcDbLine
 10
794.4835323540822
 20
568.7149251839183
 30
0.0
 11
794.4835323540822
 21
566.3349251839181
 31
0.0
  0
LINE
  5
360A
330
1F
100
AcDbEntity
  8
ハーネス
 62
     0
100
AcDbLine
 10
794.4835323540822
 20
558.6849251839181
 30
0.0
 11
794.4835323540822
 21
561.0649251839186
 31
0.0
  0
LINE
  5
360B
330
1F
100
AcDbEntity
  8
ハーネス
 62
     0
100
AcDbLine
 10
794.4835323540822
 20
564.4649251839183
 30
0.0
 11
794.4835323540822
 21
562.0849251839181
 31
0.0
  0
LINE
  5
360D
330
1F
100
AcDbEntity
  8
LAYER01
100
AcDbLine
 10
789.483532354082
 20
568.2899251839181
 30
0.0
 11
794.4835323540822
 21
568.2899251839181
 31
0.0
  0
LINE
  5
360E
330
1F
100
AcDbEntity
  8
LAYER01
100
AcDbLine
 10
789.483532354082
 20
566.7599251839182
 30
0.0
 11
794.4835323540822
 21
566.7599251839182
 31
0.0
  0
LINE
  5
363C
330
1F
100
AcDbEntity
  8
LAYER01
100
AcDbLine
 10
789.483532354082
 20
564.0399251839181
 30
0.0
 11
794.4835323540822
 21
564.0399251839181
 31
0.0
  0
LINE
  5
363D
330
1F
100
AcDbEntity
  8
LAYER01
100
AcDbLine
 10
789.483532354082
 20
562.5099251839182
 30
0.0
 11
794.4835323540822
 21
562.5099251839182
 31
0.0
  0
LINE
  5
366B
330
1F
100
AcDbEntity
  8
LAYER01
100
AcDbLine
 10
789.483532354082
 20
560.6399251839184
 30
0.0
 11
794.4835323540822
 21
560.6399251839184
 31
0.0
  0
LINE
  5
366C
330
1F
100
AcDbEntity
  8
LAYER01
100
AcDbLine
 10
789.483532354082
 20
559.1099251839183
 30
0.0
 11
794.4835323540822
 21
559.1099251839183
 31
0.0
  0
LINE
  5
369A
330
1F
100
AcDbEntity
  8
LAYER01
100
AcDbLine
 10
789.483532354082
 20
556.3899251839184
 30
0.0
 11
794.4835323540822
 21
556.3899251839184
 31
0.0
  0
LINE
  5
369B
330
1F
100
AcDbEntity
  8
LAYER01
100
AcDbLine
 10
789.483532354082
 20
554.8599251839183
 30
0.0
 11
794.4835323540822
 21
554.8599251839183
 31
0.0
  0
MTEXT
  5
36CA
102
{ACAD_XDICTIONARY
360
37AA
102
}
330
1F
100
AcDbEntity
  8
0
100
AcDbMText
 10
683.6338266116755
 20
587.6657619192762
 30
0.0
 40
2.5
 41
16.45771813026283
 71
     4
 72
     5
  1
{\W3.41642; }+150\P{\W6.08308; }0
 73
     1
 44
1.0
1001
ACAD
1000
MTEXTBEGIN
1070
    73
1070
     1
1070
    44
1040
1.0
1070
    74
1070
     0
1000
MTEXTEND
1000
ACAD_MTEXT_DEFINED_HEIGHT_BEGIN
1070
    46
1040
6.666666666666666
1000
ACAD_MTEXT_DEFINED_HEIGHT_END
  0
DIMENSION
  5
3701
330
1F
100
AcDbEntity
  8
LAYER01
100
AcDbDimension
  2
*D12
 10
789.483532354082
 20
577.1835002016976
 30
0.0
 11
792.2835323540822
 21
577.1835002016976
 31
0.0
 70
   160
 71
     5
 42
5.0
  3
ISO-25
100
AcDbAlignedDimension
 13
794.4835323540822
 23
568.7149251839183
 33
0.0
 14
789.483532354082
 24
568.7149251839183
 34
0.0
100
AcDbRotatedDimension
1001
ACAD
1000
DSTYLE
1002
{
1070
   147
1040
2.0
1070
    47
1040
3.0
1070
    48
1040
3.0
1070
    72
1070
     0
1070
    71
1070
     1
1002
}
  0
MTEXT
  5
3761
330
1F
100
AcDbEntity
  8
0
100
AcDbMText
 10
712.7179480861757
 20
523.0686655438494
 30
0.0
 40
2.5
 41
0.0
 71
     1
 72
     1
  1
{\fMS UI Gothic|b0|i0|c128|p17; }
 73
     1
 44
1.0
1001
ACAD
1000
MTEXTBEGIN
1070
    73
1070
     1
1070
    44
1040
1.0
1070
    74
1070
     0
1000
MTEXTEND
1000
ACAD_MTEXT_DEFINED_HEIGHT_BEGIN
1070
    46
1040
2.5
1000
ACAD_MTEXT_DEFINED_HEIGHT_END
  0
ENDSEC
  0
SECTION
  2
OBJECTS
  0
DICTIONARY
  5
C
330
0
100
AcDbDictionary
281
     1
  3
ACAD_CIP_PREVIOUS_PRODUCT_INFO
350
1097
  3
ACAD_COLOR
350
1073
  3
ACAD_DETAILVIEWSTYLE
350
108C
  3
ACAD_GROUP
350
D
  3
ACAD_IMAGE_VARS
350
112D
  3
ACAD_LAYOUT
350
1A
  3
ACAD_MATERIAL
350
1041
  3
ACAD_MLEADERSTYLE
350
1088
  3
ACAD_MLINESTYLE
350
17
  3
ACAD_PLOTSETTINGS
350
19
  3
ACAD_PLOTSTYLENAME
350
E
  3
ACAD_SCALELIST
350
1076
  3
ACAD_SECTIONVIEWSTYLE
350
108A
  3
ACAD_TABLESTYLE
350
1074
  3
ACAD_VISUALSTYLE
350
105A
  3
AcadDim
350
259D
  3
ACDB_RECOMPOSE_DATA
350
380B
  3
AcDbVariableDictionary
350
10FF
  3
APPDATA
350
112B
  3
DWGPROPS
350
380C
  0
DICTIONARY
  5
1008
330
2
100
AcDbDictionary
280
     1
281
     1
  3
ACAD_LAYERSTATES
360
1009
  0
DICTIONARY
  5
109A
330
10
100
AcDbDictionary
280
     1
281
     1
  3
ADSK_XREC_LAYER_RECONCILED
360
109B
  0
DICTIONARY
  5
109C
330
61
100
AcDbDictionary
280
     1
281
     1
  3
ADSK_XREC_LAYER_RECONCILED
360
109D
  0
DICTIONARY
  5
109E
330
62
100
AcDbDictionary
280
     1
281
     1
  3
ADSK_XREC_LAYER_RECONCILED
360
109F
  0
DICTIONARY
  5
10A0
330
3BD
100
AcDbDictionary
280
     1
281
     1
  3
ADSK_XREC_LAYER_RECONCILED
360
10A1
  0
DICTIONARY
  5
10A2
330
3BE
100
AcDbDictionary
280
     1
281
     1
  3
ADSK_XREC_LAYER_RECONCILED
360
10A3
  0
DICTIONARY
  5
10A4
330
3BF
100
AcDbDictionary
280
     1
281
     1
  3
ADSK_XREC_LAYER_RECONCILED
360
10A5
  0
DICTIONARY
  5
10A6
330
3C0
100
AcDbDictionary
280
     1
281
     1
  3
ADSK_XREC_LAYER_RECONCILED
360
10A7
  0
DICTIONARY
  5
10A8
330
3C1
100
AcDbDictionary
280
     1
281
     1
  3
ADSK_XREC_LAYER_RECONCILED
360
10A9
  0
DICTIONARY
  5
10AA
330
3C2
100
AcDbDictionary
280
     1
281
     1
  3
ADSK_XREC_LAYER_RECONCILED
360
10AB
  0
DICTIONARY
  5
1130
330
112F
100
AcDbDictionary
280
     1
281
     1
  3
ADSK_XREC_LAYER_RECONCILED
360
1131
  0
DICTIONARY
  5
1134
330
1133
100
AcDbDictionary
280
     1
281
     1
  3
ADSK_XREC_LAYER_RECONCILED
360
1135
  0
DICTIONARY
  5
1137
330
1136
100
AcDbDictionary
280
     1
281
     1
  3
ADSK_XREC_LAYER_RECONCILED
360
1138
  0
DICTIONARY
  5
113B
330
113A
100
AcDbDictionary
280
     1
281
     1
  3
ADSK_XREC_LAYER_RECONCILED
360
113C
  0
DICTIONARY
  5
37F7
330
2B7F
100
AcDbDictionary
280
     1
281
     1
  3
ACAD_MTEXT_RT
360
384A
  0
DICTIONARY
  5
37AA
330
36CA
100
AcDbDictionary
280
     1
281
     1
  3
ACAD_MTEXT_2008_RT
360
380A
  3
ACAD_MTEXT_RT
360
384B
  0
XRECORD
  5
1097
102
{ACAD_REACTORS
330
C
102
}
330
C
100
AcDbXrecord
280
     1
300
ACDLT
300
2014
300
ACDLT_F_S
  0
DICTIONARY
  5
1073
102
{ACAD_REACTORS
330
C
102
}
330
C
100
AcDbDictionary
281
     1
  0
DICTIONARY
  5
108C
102
{ACAD_REACTORS
330
C
102
}
330
C
100
AcDbDictionary
281
     1
  3
Metric50
350
108D
  0
DICTIONARY
  5
D
102
{ACAD_REACTORS
330
C
102
}
330
C
100
AcDbDictionary
281
     1
  3
*A1
350
3CA
  3
*A2
350
30B8
  3
*A3
350
34BD
  3
*A4
350
35DF
  0
RASTERVARIABLES
  5
112D
102
{ACAD_REACTORS
330
C
102
}
330
C
100
AcDbRasterVariables
 90
        0
 70
     1
 71
     1
 72
     1
  0
DICTIONARY
  5
1A
102
{ACAD_REACTORS
330
C
102
}
330
C
100
AcDbDictionary
281
     1
  3
Model
350
22
  3
ﾚｲｱｳﾄ1
350
51
  3
ﾚｲｱｳﾄ2
350
56
  0
DICTIONARY
  5
1041
102
{ACAD_REACTORS
330
C
102
}
330
C
100
AcDbDictionary
281
     1
  3
ByBlock
350
104A
  3
ByLayer
350
1042
  3
Global
350
1052
  0
DICTIONARY
  5
1088
102
{ACAD_REACTORS
330
C
102
}
330
C
100
AcDbDictionary
281
     1
  3
Standard
350
1089
  0
DICTIONARY
  5
17
102
{ACAD_REACTORS
330
C
102
}
330
C
100
AcDbDictionary
281
     1
  3
Standard
350
18
  0
DICTIONARY
  5
19
102
{ACAD_REACTORS
330
C
102
}
330
C
100
AcDbDictionary
281
     1
  0
ACDBDICTIONARYWDFLT
  5
E
102
{ACAD_REACTORS
330
C
102
}
330
C
100
AcDbDictionary
281
     1
  3
Normal
350
F
100
AcDbDictionaryWithDefault
340
F
  0
DICTIONARY
  5
1076
102
{ACAD_REACTORS
330
C
102
}
330
C
100
AcDbDictionary
281
     1
  3
A0
350
1077
  3
A1
350
1078
  3
A2
350
1079
  3
A3
350
107A
  3
A4
350
107B
  3
A5
350
107C
  3
A6
350
107D
  3
A7
350
107E
  3
A8
350
107F
  3
A9
350
1080
  3
B0
350
1081
  3
B1
350
1082
  3
B2
350
1083
  3
B3
350
1084
  3
B4
350
1085
  3
B5
350
1086
  3
B6
350
1087
  0
DICTIONARY
  5
108A
102
{ACAD_REACTORS
330
C
102
}
330
C
100
AcDbDictionary
281
     1
  3
Metric50
350
108B
  0
DICTIONARY
  5
1074
102
{ACAD_REACTORS
330
C
102
}
330
C
100
AcDbDictionary
281
     1
  3
Standard
350
1075
  0
DICTIONARY
  5
105A
102
{ACAD_REACTORS
330
C
102
}
330
C
100
AcDbDictionary
281
     1
  3
2dWireframe
350
1060
  3
Basic
350
105F
  3
Brighten
350
1066
  3
ColorChange
350
106A
  3
Conceptual
350
1063
  3
Dim
350
1065
  3
EdgeColorOff
350
1072
  3
Facepattern
350
1069
  3
Flat
350
105B
  3
FlatWithEdges
350
105C
  3
Gouraud
350
105D
  3
GouraudWithEdges
350
105E
  3
Hidden
350
1062
  3
JitterOff
350
1070
  3
Linepattern
350
1068
  3
OverhangOff
350
1071
  3
Realistic
350
1064
  3
Shaded
350
106F
  3
Shaded with edges
350
106E
  3
Shades of Gray
350
106B
  3
Sketchy
350
106C
  3
Thicken
350
1067
  3
Wireframe
350
1061
  3
X-Ray
350
106D
  0
XRECORD
  5
259D
102
{ACAD_REACTORS
330
C
102
}
330
C
100
AcDbXrecord
280
     1
340
0
 72
     0
 71
     0
 70
     0
 69
     0
 68
     1
 67
     3
 66
     0
 65
     0
 64
     0
 63
     3
 62
     1
 61
     0
 60
     0
 40
0.0
  0
XRECORD
  5
380B
102
{ACAD_REACTORS
330
C
102
}
330
C
100
AcDbXrecord
280
     1
 90
        1
330
1075
330
36CA
  0
DICTIONARY
  5
10FF
102
{ACAD_REACTORS
330
C
102
}
330
C
100
AcDbDictionary
281
     1
  3
CANNOSCALE
350
1105
  3
CMLEADERSTYLE
350
1101
  3
CTABLESTYLE
350
1100
  3
CVIEWDETAILSTYLE
350
1102
  3
CVIEWSECTIONSTYLE
350
1103
  3
DIMASSOC
350
37A6
  3
INDEXCTL
350
37A5
  3
LAYEREVAL
350
1107
  3
LAYERNOTIFY
350
1108
  3
LIGHTINGUNITS
350
1106
  3
MSLTSCALE
350
1104
  3
SORTENTS
350
37A4
  3
XCLIPFRAME
350
3808
  0
DICTIONARY
  5
112B
102
{ACAD_REACTORS
330
C
102
}
330
C
100
AcDbDictionary
281
     1
  0
XRECORD
  5
380C
102
{ACAD_REACTORS
330
C
102
}
330
C
100
AcDbXrecord
280
     1
  1
DWGPROPS COOKIE
  2

  3

  4

  6

  7

  8
yamada.shinji
  9

300
=
301
=
302
=
303
=
304
=
305
=
306
=
307
=
308
=
309
=
 40
1.290053587962963
 41
2454504.395150197
 42
2457871.400804386
  1

 90
        0
  0
DICTIONARY
  5
1009
102
{ACAD_REACTORS
330
1008
102
}
330
1008
100
AcDbDictionary
281
     1
  0
XRECORD
  5
109B
102
{ACAD_REACTORS
330
109A
102
}
330
109A
100
AcDbXrecord
280
     1
290
     1
  0
XRECORD
  5
109D
102
{ACAD_REACTORS
330
109C
102
}
330
109C
100
AcDbXrecord
280
     1
290
     1
  0
XRECORD
  5
109F
102
{ACAD_REACTORS
330
109E
102
}
330
109E
100
AcDbXrecord
280
     1
290
     1
  0
XRECORD
  5
10A1
102
{ACAD_REACTORS
330
10A0
102
}
330
10A0
100
AcDbXrecord
280
     1
290
     1
  0
XRECORD
  5
10A3
102
{ACAD_REACTORS
330
10A2
102
}
330
10A2
100
AcDbXrecord
280
     1
290
     1
  0
XRECORD
  5
10A5
102
{ACAD_REACTORS
330
10A4
102
}
330
10A4
100
AcDbXrecord
280
     1
290
     1
  0
XRECORD
  5
10A7
102
{ACAD_REACTORS
330
10A6
102
}
330
10A6
100
AcDbXrecord
280
     1
290
     1
  0
XRECORD
  5
10A9
102
{ACAD_REACTORS
330
10A8
102
}
330
10A8
100
AcDbXrecord
280
     1
290
     1
  0
XRECORD
  5
10AB
102
{ACAD_REACTORS
330
10AA
102
}
330
10AA
100
AcDbXrecord
280
     1
290
     1
  0
XRECORD
  5
1131
102
{ACAD_REACTORS
330
1130
102
}
330
1130
100
AcDbXrecord
280
     1
290
     1
  0
XRECORD
  5
1135
102
{ACAD_REACTORS
330
1134
102
}
330
1134
100
AcDbXrecord
280
     1
290
     1
  0
XRECORD
  5
1138
102
{ACAD_REACTORS
330
1137
102
}
330
1137
100
AcDbXrecord
280
     1
290
     1
  0
XRECORD
  5
113C
102
{ACAD_REACTORS
330
113B
102
}
330
113B
100
AcDbXrecord
280
     1
290
     1
  0
XRECORD
  5
384A
102
{ACAD_REACTORS
330
37F7
102
}
330
37F7
100
AcDbXrecord
280
     1
 40
3553.0
  1
\U+03A614.9
  0
XRECORD
  5
380A
102
{ACAD_REACTORS
330
37AA
102
}
330
37AA
100
AcDbXrecord
280
     1
 40
23484.0
  1
{\pxqr;+150\P0}
  0
XRECORD
  5
384B
102
{ACAD_REACTORS
330
37AA
102
}
330
37AA
100
AcDbXrecord
280
     1
 40
35891.0
  1
\pi8.5411;+150\P\pi15.208;0
  0
ACDBDETAILVIEWSTYLE
  5
108D
102
{ACAD_XDICTIONARY
360
3848
102
}
102
{ACAD_REACTORS
330
108C
102
}
330
108C
100
AcDbModelDocViewStyle
 70
     0
  3
Metric50
290
     0
100
AcDbDetailViewStyle
 70
     0
 71
     0
 90
        3
 71
     1
340
11
 40
5.0
340
0
 40
5.0
300

 40
0.0
280
     1
 71
     2
340
16
 90
       25
 71
     3
340
11
 40
5.0
 90
        0
 40
15.0
 90
        1
300
%<\AcVar ViewDetailId>% (%<\AcVar ViewScale \f "%sn">%)
 71
     4
340
16
 90
       25
340
16
 90
       25
280
     0
  0
GROUP
  5
3CA
102
{ACAD_REACTORS
330
D
102
}
330
D
100
AcDbGroup
300

 70
     3
 71
     1
340
3D8
340
3D4
340
3DA
340
3D9
340
3EA
340
3CF
340
3CD
340
3E5
340
3E7
340
3E6
340
3E4
340
3E3
340
3E2
340
3E1
340
3E0
340
3DE
340
3DD
340
3DF
340
3E9
340
3CE
340
3ED
340
3EC
340
3D2
340
3CC
340
3E8
340
3D1
340
3D0
340
3D5
340
3D6
340
3EB
340
3DB
340
3D7
340
3DC
340
3D3
  0
GROUP
  5
30B8
102
{ACAD_REACTORS
330
D
102
}
330
D
100
AcDbGroup
300

 70
     1
 71
     1
  0
GROUP
  5
34BD
102
{ACAD_REACTORS
330
D
102
}
330
D
100
AcDbGroup
300

 70
     1
 71
     1
  0
GROUP
  5
35DF
102
{ACAD_REACTORS
330
D
102
}
330
D
100
AcDbGroup
300

 70
     1
 71
     1
  0
LAYOUT
  5
22
102
{ACAD_XDICTIONARY
360
380D
102
}
102
{ACAD_REACTORS
330
1A
102
}
330
1A
100
AcDbPlotSettings
  1

  2
iR3300
  4
A4
  6

 40
5.873749732971191
 41
5.873747825622557
 42
5.873748779296875
 43
5.873748779296875
 44
209.9733276367186
 45
296.9259948730469
 46
1.61
 47
2.339999999999998
 48
0.0
 49
0.0
140
0.0
141
0.0
142
1.0
143
1.0
 70
 11956
 72
     1
 73
     1
 74
     2
  7
monochrome.ctb
 75
    16
147
1.0
148
-554.1603696963461
149
-430.1498270145568
100
AcDbLayout
  1
Model
 70
     1
 71
     0
 10
0.0
 20
0.0
 11
12.0
 21
9.0
 12
0.0
 22
0.0
 32
0.0
 14
554.1603696963461
 24
430.1498270145568
 34
0.0
 15
834.6603696963461
 25
625.1498270145567
 35
0.0
146
0.0
 13
0.0
 23
0.0
 33
0.0
 16
1.0
 26
0.0
 36
0.0
 17
0.0
 27
1.0
 37
0.0
 76
     0
330
1F
331
103F
  0
LAYOUT
  5
51
102
{ACAD_XDICTIONARY
360
380F
102
}
102
{ACAD_REACTORS
330
1A
102
}
330
1A
100
AcDbPlotSettings
  1

  2
None
  4

  6

 40
0.0
 41
0.0
 42
0.0
 43
0.0
 44
0.0
 45
0.0
 46
0.0
 47
0.0
 48
0.0
 49
0.0
140
0.0
141
0.0
142
1.0
143
1.0
 70
   688
 72
     0
 73
     0
 74
     5
  7

 75
    16
147
1.0
148
0.0
149
0.0
100
AcDbLayout
  1
ﾚｲｱｳﾄ1
 70
     1
 71
     1
 10
0.0
 20
0.0
 11
12.0
 21
9.0
 12
0.0
 22
0.0
 32
0.0
 14
0.0
 24
0.0
 34
0.0
 15
0.0
 25
0.0
 35
0.0
146
0.0
 13
0.0
 23
0.0
 33
0.0
 16
1.0
 26
0.0
 36
0.0
 17
0.0
 27
1.0
 37
0.0
 76
     0
330
50
  0
LAYOUT
  5
56
102
{ACAD_XDICTIONARY
360
3811
102
}
102
{ACAD_REACTORS
330
1A
102
}
330
1A
100
AcDbPlotSettings
  1

  2
None
  4

  6

 40
0.0
 41
0.0
 42
0.0
 43
0.0
 44
0.0
 45
0.0
 46
0.0
 47
0.0
 48
0.0
 49
0.0
140
0.0
141
0.0
142
1.0
143
1.0
 70
   688
 72
     0
 73
     0
 74
     5
  7

 75
    16
147
1.0
148
0.0
149
0.0
100
AcDbLayout
  1
ﾚｲｱｳﾄ2
 70
     1
 71
     2
 10
0.0
 20
0.0
 11
12.0
 21
9.0
 12
0.0
 22
0.0
 32
0.0
 14
0.0
 24
0.0
 34
0.0
 15
0.0
 25
0.0
 35
0.0
146
0.0
 13
0.0
 23
0.0
 33
0.0
 16
1.0
 26
0.0
 36
0.0
 17
0.0
 27
1.0
 37
0.0
 76
     0
330
55
  0
MATERIAL
  5
104A
102
{ACAD_XDICTIONARY
360
37BF
102
}
102
{ACAD_REACTORS
330
1041
102
}
330
1041
100
AcDbMaterial
  1
ByBlock
 72
     0
 43
0.0008202099737533
 43
0.0
 43
0.0
 43
0.0
 43
0.0
 43
0.0008202099737533
 43
0.0
 43
0.0
 43
0.0
 43
0.0
 43
1.0
 43
0.0
 43
0.0
 43
0.0
 43
0.0
 43
1.0
 77
     0
 47
0.0008202099737533
 47
0.0
 47
0.0
 47
0.0
 47
0.0
 47
0.0008202099737533
 47
0.0
 47
0.0
 47
0.0
 47
0.0
 47
1.0
 47
0.0
 47
0.0
 47
0.0
 47
0.0
 47
1.0
171
     0
 49
0.0008202099737533
 49
0.0
 49
0.0
 49
0.0
 49
0.0
 49
0.0008202099737533
 49
0.0
 49
0.0
 49
0.0
 49
0.0
 49
1.0
 49
0.0
 49
0.0
 49
0.0
 49
0.0
 49
1.0
175
     0
142
0.0008202099737533
142
0.0
142
0.0
142
0.0
142
0.0
142
0.0008202099737533
142
0.0
142
0.0
142
0.0
142
0.0
142
1.0
142
0.0
142
0.0
142
0.0
142
0.0
142
1.0
179
     0
144
0.0008202099737533
144
0.0
144
0.0
144
0.0
144
0.0
144
0.0008202099737533
144
0.0
144
0.0
144
0.0
144
0.0
144
1.0
144
0.0
144
0.0
144
0.0
144
0.0
144
1.0
147
0.0008202099737533
147
0.0
147
0.0
147
0.0
147
0.0
147
0.0008202099737533
147
0.0
147
0.0
147
0.0
147
0.0
147
1.0
147
0.0
147
0.0
147
0.0
147
0.0
147
1.0
  0
MATERIAL
  5
1042
102
{ACAD_XDICTIONARY
360
37BD
102
}
102
{ACAD_REACTORS
330
1041
102
}
330
1041
100
AcDbMaterial
  1
ByLayer
 72
     0
 43
0.0008202099737533
 43
0.0
 43
0.0
 43
0.0
 43
0.0
 43
0.0008202099737533
 43
0.0
 43
0.0
 43
0.0
 43
0.0
 43
1.0
 43
0.0
 43
0.0
 43
0.0
 43
0.0
 43
1.0
 77
     0
 47
0.0008202099737533
 47
0.0
 47
0.0
 47
0.0
 47
0.0
 47
0.0008202099737533
 47
0.0
 47
0.0
 47
0.0
 47
0.0
 47
1.0
 47
0.0
 47
0.0
 47
0.0
 47
0.0
 47
1.0
171
     0
 49
0.0008202099737533
 49
0.0
 49
0.0
 49
0.0
 49
0.0
 49
0.0008202099737533
 49
0.0
 49
0.0
 49
0.0
 49
0.0
 49
1.0
 49
0.0
 49
0.0
 49
0.0
 49
0.0
 49
1.0
175
     0
142
0.0008202099737533
142
0.0
142
0.0
142
0.0
142
0.0
142
0.0008202099737533
142
0.0
142
0.0
142
0.0
142
0.0
142
1.0
142
0.0
142
0.0
142
0.0
142
0.0
142
1.0
179
     0
144
0.0008202099737533
144
0.0
144
0.0
144
0.0
144
0.0
144
0.0008202099737533
144
0.0
144
0.0
144
0.0
144
0.0
144
1.0
144
0.0
144
0.0
144
0.0
144
0.0
144
1.0
147
0.0008202099737533
147
0.0
147
0.0
147
0.0
147
0.0
147
0.0008202099737533
147
0.0
147
0.0
147
0.0
147
0.0
147
1.0
147
0.0
147
0.0
147
0.0
147
0.0
147
1.0
  0
MATERIAL
  5
1052
102
{ACAD_XDICTIONARY
360
37C1
102
}
102
{ACAD_REACTORS
330
1041
102
}
330
1041
100
AcDbMaterial
  1
Global
 72
     0
 43
0.0008202099737533
 43
0.0
 43
0.0
 43
0.0
 43
0.0
 43
0.0008202099737533
 43
0.0
 43
0.0
 43
0.0
 43
0.0
 43
1.0
 43
0.0
 43
0.0
 43
0.0
 43
0.0
 43
1.0
 77
     0
 47
0.0008202099737533
 47
0.0
 47
0.0
 47
0.0
 47
0.0
 47
0.0008202099737533
 47
0.0
 47
0.0
 47
0.0
 47
0.0
 47
1.0
 47
0.0
 47
0.0
 47
0.0
 47
0.0
 47
1.0
171
     0
 49
0.0008202099737533
 49
0.0
 49
0.0
 49
0.0
 49
0.0
 49
0.0008202099737533
 49
0.0
 49
0.0
 49
0.0
 49
0.0
 49
1.0
 49
0.0
 49
0.0
 49
0.0
 49
0.0
 49
1.0
175
     0
142
0.0008202099737533
142
0.0
142
0.0
142
0.0
142
0.0
142
0.0008202099737533
142
0.0
142
0.0
142
0.0
142
0.0
142
1.0
142
0.0
142
0.0
142
0.0
142
0.0
142
1.0
179
     0
144
0.0008202099737533
144
0.0
144
0.0
144
0.0
144
0.0
144
0.0008202099737533
144
0.0
144
0.0
144
0.0
144
0.0
144
1.0
144
0.0
144
0.0
144
0.0
144
0.0
144
1.0
147
0.0008202099737533
147
0.0
147
0.0
147
0.0
147
0.0
147
0.0008202099737533
147
0.0
147
0.0
147
0.0
147
0.0
147
1.0
147
0.0
147
0.0
147
0.0
147
0.0
147
1.0
  0
MLEADERSTYLE
  5
1089
102
{ACAD_XDICTIONARY
360
3844
102
}
102
{ACAD_REACTORS
330
1088
102
}
330
1088
100
AcDbMLeaderStyle
170
     2
171
     1
172
     0
 90
        2
 40
0.0
 41
0.0
173
     1
 91
-1056964608
340
14
 92
       -2
290
     1
 42
2.0
291
     1
 43
0.36
  3
Standard
 44
4.0
300

342
11
174
     1
178
     6
175
     1
176
     0
 93
-1056964608
 45
4.0
292
     0
297
     0
 46
4.0
 94
-1056964608
 47
1.0
 49
1.0
140
1.0
293
     1
141
0.0
294
     1
177
     0
142
1.0
295
     0
296
     0
143
0.125
1001
ACAD_MLEADERVER
1070
     2
  0
MLINESTYLE
  5
18
102
{ACAD_REACTORS
330
17
102
}
330
17
100
AcDbMlineStyle
  2
STANDARD
 70
     0
  3

 62
   256
 51
90.0
 52
90.0
 71
     2
 49
0.5
 62
   256
  6
BYLAYER
 49
-0.5
 62
   256
  6
BYLAYER
  0
ACDBPLACEHOLDER
  5
F
102
{ACAD_REACTORS
330
E
102
}
330
E
  0
SCALE
  5
1077
102
{ACAD_REACTORS
330
1076
102
}
330
1076
100
AcDbScale
 70
     0
300
1:1
140
1.0
141
1.0
290
     1
  0
SCALE
  5
1078
102
{ACAD_REACTORS
330
1076
102
}
330
1076
100
AcDbScale
 70
     0
300
1:2
140
1.0
141
2.0
290
     0
  0
SCALE
  5
1079
102
{ACAD_REACTORS
330
1076
102
}
330
1076
100
AcDbScale
 70
     0
300
1:4
140
1.0
141
4.0
290
     0
  0
SCALE
  5
107A
102
{ACAD_REACTORS
330
1076
102
}
330
1076
100
AcDbScale
 70
     0
300
1:5
140
1.0
141
5.0
290
     0
  0
SCALE
  5
107B
102
{ACAD_REACTORS
330
1076
102
}
330
1076
100
AcDbScale
 70
     0
300
1:8
140
1.0
141
8.0
290
     0
  0
SCALE
  5
107C
102
{ACAD_REACTORS
330
1076
102
}
330
1076
100
AcDbScale
 70
     0
300
1:10
140
1.0
141
10.0
290
     0
  0
SCALE
  5
107D
102
{ACAD_REACTORS
330
1076
102
}
330
1076
100
AcDbScale
 70
     0
300
1:16
140
1.0
141
16.0
290
     0
  0
SCALE
  5
107E
102
{ACAD_REACTORS
330
1076
102
}
330
1076
100
AcDbScale
 70
     0
300
1:20
140
1.0
141
20.0
290
     0
  0
SCALE
  5
107F
102
{ACAD_REACTORS
330
1076
102
}
330
1076
100
AcDbScale
 70
     0
300
1:30
140
1.0
141
30.0
290
     0
  0
SCALE
  5
1080
102
{ACAD_REACTORS
330
1076
102
}
330
1076
100
AcDbScale
 70
     0
300
1:40
140
1.0
141
40.0
290
     0
  0
SCALE
  5
1081
102
{ACAD_REACTORS
330
1076
102
}
330
1076
100
AcDbScale
 70
     0
300
1:50
140
1.0
141
50.0
290
     0
  0
SCALE
  5
1082
102
{ACAD_REACTORS
330
1076
102
}
330
1076
100
AcDbScale
 70
     0
300
1:100
140
1.0
141
100.0
290
     0
  0
SCALE
  5
1083
102
{ACAD_REACTORS
330
1076
102
}
330
1076
100
AcDbScale
 70
     0
300
2:1
140
2.0
141
1.0
290
     0
  0
SCALE
  5
1084
102
{ACAD_REACTORS
330
1076
102
}
330
1076
100
AcDbScale
 70
     0
300
4:1
140
4.0
141
1.0
290
     0
  0
SCALE
  5
1085
102
{ACAD_REACTORS
330
1076
102
}
330
1076
100
AcDbScale
 70
     0
300
8:1
140
8.0
141
1.0
290
     0
  0
SCALE
  5
1086
102
{ACAD_REACTORS
330
1076
102
}
330
1076
100
AcDbScale
 70
     0
300
10:1
140
10.0
141
1.0
290
     0
  0
SCALE
  5
1087
102
{ACAD_REACTORS
330
1076
102
}
330
1076
100
AcDbScale
 70
     0
300
100:1
140
100.0
141
1.0
290
     0
  0
ACDBSECTIONVIEWSTYLE
  5
108B
102
{ACAD_XDICTIONARY
360
3846
102
}
102
{ACAD_REACTORS
330
108A
102
}
330
108A
100
AcDbModelDocViewStyle
 70
     0
  3
Metric50
290
     0
100
AcDbSectionViewStyle
 70
     0
 71
     0
 90
      102
 71
     1
340
11
 40
5.0
340
0
340
0
 40
5.0
300
I, O, Q, S, X, Z
 40
10.0
 90
        0
 40
2.5
 90
        0
 71
     2
340
16
 90
       25
340
16
 90
       50
 40
5.0
 40
2.5
 40
5.0
 71
     3
340
11
 40
5.0
 90
        0
 40
15.0
 90
        1
300
%<\AcVar ViewSectionStartId>%-%<\AcVar ViewSectionEndId>% (%<\AcVar ViewScale \f "%sn">%)
 71
     4
300
ANSI31
 40
1.0
 90
        0
290
     0
290
     0
 90
        6
 40
0.0
 40
1.570796326794896
 40
0.2617993877991494
 40
1.308996938995747
 40
-0.2617993877991494
 40
1.832595714594045
  0
TABLESTYLE
  5
1075
102
{ACAD_XDICTIONARY
360
37A8
102
}
102
{ACAD_REACTORS
330
1074
102
}
330
1074
100
AcDbTableStyle
  3
Standard
 70
     0
 71
     0
 40
1.5
 41
1.5
280
     0
281
     0
  7
Standard
140
4.5
170
     2
 62
     0
 63
     7
283
     0
274
    -2
284
     1
 64
     0
275
    -2
285
     1
 65
     0
276
    -2
286
     1
 66
     0
277
    -2
287
     1
 67
     0
278
    -2
288
     1
 68
     0
279
    -2
289
     1
 69
     0
  7
Standard
140
6.0
170
     5
 62
     0
 63
     7
283
     0
274
    -2
284
     1
 64
     0
275
    -2
285
     1
 65
     0
276
    -2
286
     1
 66
     0
277
    -2
287
     1
 67
     0
278
    -2
288
     1
 68
     0
279
    -2
289
     1
 69
     0
  7
Standard
140
4.5
170
     5
 62
     0
 63
     7
283
     0
274
    -2
284
     1
 64
     0
275
    -2
285
     1
 65
     0
276
    -2
286
     1
 66
     0
277
    -2
287
     1
 67
     0
278
    -2
288
     1
 68
     0
279
    -2
289
     1
 69
     0
  0
VISUALSTYLE
  5
1060
102
{ACAD_XDICTIONARY
360
381D
102
}
102
{ACAD_REACTORS
330
105A
102
}
330
105A
100
AcDbVisualStyle
  2

 70
     4
 71
     0
 72
     2
 73
     0
 90
        0
 40
-0.6
 41
-30.0
 62
     5
 63
     7
 74
     1
 91
        4
 64
     7
 65
   257
 75
     1
175
     1
 42
1.0
 92
        0
 66
   257
 43
1.0
 76
     1
 77
     6
 78
     2
 67
     7
 79
     5
170
     0
171
     0
290
     0
174
     0
 93
        1
 44
0.0
173
     0
291
     0
 45
0.0
1001
ACAD
1000
AcDbSavedByObjectVersion
1070
     0
  0
VISUALSTYLE
  5
105F
102
{ACAD_XDICTIONARY
360
381B
102
}
102
{ACAD_REACTORS
330
105A
102
}
330
105A
100
AcDbVisualStyle
  2

 70
     7
 71
     1
 72
     0
 73
     1
 90
        0
 40
-0.6
 41
-30.0
 62
     5
 63
     7
 74
     0
 91
        4
 64
     7
 65
   257
 75
     1
175
     1
 42
1.0
 92
        8
 66
     7
 43
1.0
 76
     1
 77
     6
 78
     2
 67
     7
 79
     5
170
     0
171
     0
290
     0
174
     0
 93
        1
 44
0.0
173
     0
291
     1
 45
0.0
1001
ACAD
1000
AcDbSavedByObjectVersion
1070
     0
  0
VISUALSTYLE
  5
1066
102
{ACAD_XDICTIONARY
360
3829
102
}
102
{ACAD_REACTORS
330
105A
102
}
330
105A
100
AcDbVisualStyle
  2

 70
    12
 71
     2
 72
     2
 73
     0
 90
        0
 40
-0.6
 41
-30.0
 62
     5
 63
     7
 74
     1
 91
        4
 64
     7
 65
   257
 75
     1
175
     1
 42
1.0
 92
        8
 66
     7
 43
1.0
 76
     1
 77
     6
 78
     2
 67
     7
 79
     5
170
     0
171
     0
290
     0
174
     0
 93
        1
 44
50.0
173
     0
291
     1
 45
0.0
1001
ACAD
1000
AcDbSavedByObjectVersion
1070
     0
  0
VISUALSTYLE
  5
106A
102
{ACAD_XDICTIONARY
360
3831
102
}
102
{ACAD_REACTORS
330
105A
102
}
330
105A
100
AcDbVisualStyle
  2

 70
    16
 71
     2
 72
     2
 73
     3
 90
        0
 40
-0.6
 41
-30.0
 62
     5
 63
     8
 74
     1
 91
        4
 64
     7
 65
   257
 75
     1
175
     1
 42
1.0
 92
        8
 66
     8
 43
1.0
 76
     1
 77
     6
 78
     2
 67
     7
 79
     5
170
     0
171
     0
290
     0
174
     0
 93
        1
 44
0.0
173
     0
291
     1
 45
0.0
1001
ACAD
1000
AcDbSavedByObjectVersion
1070
     0
  0
VISUALSTYLE
  5
1063
102
{ACAD_XDICTIONARY
360
3823
102
}
102
{ACAD_REACTORS
330
105A
102
}
330
105A
100
AcDbVisualStyle
  2

 70
     9
 71
     3
 72
     2
 73
     0
 90
        0
 40
-0.6
 41
-30.0
 62
     5
 63
     7
 74
     2
 91
        2
 64
     7
 65
   257
 75
     1
175
     1
 42
179.0
 92
        8
 66
     7
 43
1.0
 76
     1
 77
     6
 78
     2
 67
     7
 79
     3
170
     0
171
     0
290
     0
174
     0
 93
        1
 44
0.0
173
     0
291
     0
 45
0.0
1001
ACAD
1000
AcDbSavedByObjectVersion
1070
     0
  0
VISUALSTYLE
  5
1065
102
{ACAD_XDICTIONARY
360
3827
102
}
102
{ACAD_REACTORS
330
105A
102
}
330
105A
100
AcDbVisualStyle
  2

 70
    11
 71
     2
 72
     2
 73
     0
 90
        0
 40
-0.6
 41
-30.0
 62
     5
 63
     7
 74
     1
 91
        4
 64
     7
 65
   257
 75
     1
175
     1
 42
1.0
 92
        8
 66
     7
 43
1.0
 76
     1
 77
     6
 78
     2
 67
     7
 79
     5
170
     0
171
     0
290
     0
174
     0
 93
        1
 44
-50.0
173
     0
291
     1
 45
0.0
1001
ACAD
1000
AcDbSavedByObjectVersion
1070
     0
  0
VISUALSTYLE
  5
1072
102
{ACAD_XDICTIONARY
360
3841
102
}
102
{ACAD_REACTORS
330
105A
102
}
330
105A
100
AcDbVisualStyle
  2

 70
    22
 71
     2
 72
     2
 73
     0
 90
        0
 40
-0.6
 41
-30.0
 62
     5
 63
     7
 74
     1
 91
        4
 64
     7
 65
   257
 75
     1
175
     1
 42
1.0
 92
        8
 66
     7
 43
1.0
 76
     1
 77
     6
 78
     2
 67
     7
 79
     5
170
     0
171
     0
290
     0
174
     0
 93
        1
 44
0.0
173
     0
291
     1
 45
0.0
1001
ACAD
1000
AcDbSavedByObjectVersion
1070
     0
  0
VISUALSTYLE
  5
1069
102
{ACAD_XDICTIONARY
360
382F
102
}
102
{ACAD_REACTORS
330
105A
102
}
330
105A
100
AcDbVisualStyle
  2

 70
    15
 71
     2
 72
     2
 73
     0
 90
        0
 40
-0.6
 41
-30.0
 62
     5
 63
     7
 74
     1
 91
        4
 64
     7
 65
   257
 75
     1
175
     1
 42
1.0
 92
        8
 66
     7
 43
1.0
 76
     1
 77
     6
 78
     2
 67
     7
 79
     5
170
     0
171
     0
290
     0
174
     0
 93
        1
 44
0.0
173
     0
291
     1
 45
0.0
1001
ACAD
1000
AcDbSavedByObjectVersion
1070
     0
  0
VISUALSTYLE
  5
105B
102
{ACAD_XDICTIONARY
360
3813
102
}
102
{ACAD_REACTORS
330
105A
102
}
330
105A
100
AcDbVisualStyle
  2

 70
     0
 71
     2
 72
     1
 73
     1
 90
        2
 40
-0.6
 41
30.0
 62
     5
 63
     7
 74
     0
 91
        0
 64
     7
 65
   257
 75
     1
175
     1
 42
1.0
 92
        8
 66
     7
 43
1.0
 76
     1
 77
     6
 78
     2
 67
     7
 79
     5
170
     0
171
     0
290
     0
174
     0
 93
       13
 44
0.0
173
     0
291
     1
 45
0.0
1001
ACAD
1000
AcDbSavedByObjectVersion
1070
     0
  0
VISUALSTYLE
  5
105C
102
{ACAD_XDICTIONARY
360
3815
102
}
102
{ACAD_REACTORS
330
105A
102
}
330
105A
100
AcDbVisualStyle
  2

 70
     1
 71
     2
 72
     1
 73
     1
 90
        2
 40
-0.6
 41
30.0
 62
     5
 63
     7
 74
     1
 91
        0
 64
     7
 65
   257
 75
     1
175
     1
 42
1.0
 92
        0
 66
   257
 43
1.0
 76
     1
 77
     6
 78
     2
 67
     7
 79
     5
170
     0
171
     0
290
     0
174
     0
 93
       13
 44
0.0
173
     0
291
     1
 45
0.0
1001
ACAD
1000
AcDbSavedByObjectVersion
1070
     0
  0
VISUALSTYLE
  5
105D
102
{ACAD_XDICTIONARY
360
3817
102
}
102
{ACAD_REACTORS
330
105A
102
}
330
105A
100
AcDbVisualStyle
  2

 70
     2
 71
     2
 72
     2
 73
     1
 90
        2
 40
-0.6
 41
30.0
 62
     5
 63
     7
 74
     0
 91
        0
 64
     7
 65
   257
 75
     1
175
     1
 42
1.0
 92
        0
 66
     7
 43
1.0
 76
     1
 77
     6
 78
     2
 67
     7
 79
     5
170
     0
171
     0
290
     0
174
     0
 93
       13
 44
0.0
173
     0
291
     1
 45
0.0
1001
ACAD
1000
AcDbSavedByObjectVersion
1070
     0
  0
VISUALSTYLE
  5
105E
102
{ACAD_XDICTIONARY
360
3819
102
}
102
{ACAD_REACTORS
330
105A
102
}
330
105A
100
AcDbVisualStyle
  2

 70
     3
 71
     2
 72
     2
 73
     1
 90
        2
 40
-0.6
 41
30.0
 62
     5
 63
     7
 74
     1
 91
        0
 64
     7
 65
   257
 75
     1
175
     1
 42
1.0
 92
        0
 66
   257
 43
1.0
 76
     1
 77
     6
 78
     2
 67
     7
 79
     5
170
     0
171
     0
290
     0
174
     0
 93
       13
 44
0.0
173
     0
291
     1
 45
0.0
1001
ACAD
1000
AcDbSavedByObjectVersion
1070
     0
  0
VISUALSTYLE
  5
1062
102
{ACAD_XDICTIONARY
360
3821
102
}
102
{ACAD_REACTORS
330
105A
102
}
330
105A
100
AcDbVisualStyle
  2

 70
     6
 71
     1
 72
     2
 73
     2
 90
        0
 40
-0.6
 41
-30.0
 62
     5
 63
     7
 74
     2
 91
        2
 64
     7
 65
   257
 75
     2
175
     1
 42
40.0
 92
        0
 66
   257
 43
1.0
 76
     1
 77
     6
 78
     2
 67
     7
 79
     3
170
     0
171
     0
290
     0
174
     0
 93
        1
 44
0.0
173
     0
291
     0
 45
0.0
1001
ACAD
1000
AcDbSavedByObjectVersion
1070
     0
  0
VISUALSTYLE
  5
1070
102
{ACAD_XDICTIONARY
360
383D
102
}
102
{ACAD_REACTORS
330
105A
102
}
330
105A
100
AcDbVisualStyle
  2

 70
    20
 71
     2
 72
     2
 73
     0
 90
        0
 40
-0.6
 41
-30.0
 62
     5
 63
     7
 74
     1
 91
        4
 64
     7
 65
   257
 75
     1
175
     1
 42
1.0
 92
       10
 66
     7
 43
1.0
 76
     1
 77
     6
 78
     2
 67
     7
 79
     5
170
     0
171
     0
290
     0
174
     0
 93
        1
 44
0.0
173
     0
291
     1
 45
0.0
1001
ACAD
1000
AcDbSavedByObjectVersion
1070
     0
  0
VISUALSTYLE
  5
1068
102
{ACAD_XDICTIONARY
360
382D
102
}
102
{ACAD_REACTORS
330
105A
102
}
330
105A
100
AcDbVisualStyle
  2

 70
    14
 71
     2
 72
     2
 73
     0
 90
        0
 40
-0.6
 41
-30.0
 62
     5
 63
     7
 74
     1
 91
        4
 64
     7
 65
   257
 75
     7
175
     7
 42
1.0
 92
        8
 66
     7
 43
1.0
 76
     1
 77
     6
 78
     2
 67
     7
 79
     5
170
     0
171
     0
290
     0
174
     0
 93
        1
 44
0.0
173
     0
291
     1
 45
0.0
1001
ACAD
1000
AcDbSavedByObjectVersion
1070
     0
  0
VISUALSTYLE
  5
1071
102
{ACAD_XDICTIONARY
360
383F
102
}
102
{ACAD_REACTORS
330
105A
102
}
330
105A
100
AcDbVisualStyle
  2

 70
    21
 71
     2
 72
     2
 73
     0
 90
        0
 40
-0.6
 41
-30.0
 62
     5
 63
     7
 74
     1
 91
        4
 64
     7
 65
   257
 75
     1
175
     1
 42
1.0
 92
        9
 66
     7
 43
1.0
 76
     1
 77
     6
 78
     2
 67
     7
 79
     5
170
     0
171
     0
290
     0
174
     0
 93
        1
 44
0.0
173
     0
291
     1
 45
0.0
1001
ACAD
1000
AcDbSavedByObjectVersion
1070
     0
  0
VISUALSTYLE
  5
1064
102
{ACAD_XDICTIONARY
360
3825
102
}
102
{ACAD_REACTORS
330
105A
102
}
330
105A
100
AcDbVisualStyle
  2

 70
     8
 71
     2
 72
     3
 73
     0
 90
        2
 40
-0.6
 41
30.0
 62
     5
 63
     7
 74
     0
 91
        0
 64
     7
 65
   257
 75
     1
175
     1
 42
1.0
 92
        8
 66
   257
 43
1.0
 76
     1
 77
     6
 78
     2
 67
     7
 79
     3
170
     0
171
     0
290
     0
174
     0
 93
       13
 44
0.0
173
     0
291
     0
 45
0.0
1001
ACAD
1000
AcDbSavedByObjectVersion
1070
     0
  0
VISUALSTYLE
  5
106F
102
{ACAD_XDICTIONARY
360
383B
102
}
102
{ACAD_REACTORS
330
105A
102
}
330
105A
100
AcDbVisualStyle
  2

 70
    27
 71
     2
 72
     2
 73
     1
 90
        2
 40
-0.6
 41
30.0
 62
     5
 63
     7
 74
     0
 91
        4
 64
     7
 65
   257
 75
     1
175
     1
 42
1.0
 92
        8
 66
   257
 43
1.0
 76
     1
 77
     6
 78
     2
 67
     8
 79
     3
170
     0
171
     0
290
     0
174
     0
 93
        5
 44
0.0
173
     0
291
     0
 45
0.0
1001
ACAD
1000
AcDbSavedByObjectVersion
1070
     0
  0
VISUALSTYLE
  5
106E
102
{ACAD_XDICTIONARY
360
3839
102
}
102
{ACAD_REACTORS
330
105A
102
}
330
105A
100
AcDbVisualStyle
  2

 70
    26
 71
     2
 72
     2
 73
     1
 90
        2
 40
-0.6
 41
30.0
 62
     5
 63
     7
 74
     1
 91
       10
 64
     7
 65
   257
 75
     2
175
     1
 42
1.0
 92
        8
 66
   257
 43
1.0
 76
     1
 77
     6
 78
     2
 67
     7
 79
     3
170
     0
171
     0
290
     0
174
     0
 93
        5
 44
0.0
173
     0
291
     0
 45
0.0
1001
ACAD
1000
AcDbSavedByObjectVersion
1070
     0
  0
VISUALSTYLE
  5
106B
102
{ACAD_XDICTIONARY
360
3833
102
}
102
{ACAD_REACTORS
330
105A
102
}
330
105A
100
AcDbVisualStyle
  2

 70
    23
 71
     2
 72
     2
 73
     3
 90
        0
 40
-0.6
 41
-30.0
 62
     5
 63
     7
 74
     2
 91
        2
 64
     7
 65
     7
 75
     1
175
     1
 42
40.0
 92
        8
 66
     7
 43
1.0
 76
     1
 77
     6
 78
     2
 67
     7
 79
     3
170
     0
171
     0
290
     0
174
     0
 93
        1
 44
0.0
173
     0
291
     0
 45
0.0
1001
ACAD
1000
AcDbSavedByObjectVersion
1070
     0
  0
VISUALSTYLE
  5
106C
102
{ACAD_XDICTIONARY
360
3835
102
}
102
{ACAD_REACTORS
330
105A
102
}
330
105A
100
AcDbVisualStyle
  2

 70
    24
 71
     1
 72
     2
 73
     2
 90
        0
 40
-0.6
 41
-30.0
 62
     5
 63
     7
 74
     2
 91
        2
 64
     7
 65
     7
 75
     1
175
     1
 42
40.0
 92
       11
 66
     7
 43
1.0
 76
     1
 77
     6
 78
     2
 67
     7
 79
     6
170
     0
171
     0
290
     0
174
     0
 93
        1
 44
0.0
173
     0
291
     0
 45
0.0
1001
ACAD
1000
AcDbSavedByObjectVersion
1070
     0
  0
VISUALSTYLE
  5
1067
102
{ACAD_XDICTIONARY
360
382B
102
}
102
{ACAD_REACTORS
330
105A
102
}
330
105A
100
AcDbVisualStyle
  2

 70
    13
 71
     2
 72
     2
 73
     0
 90
        0
 40
-0.6
 41
-30.0
 62
     5
 63
     7
 74
     1
 91
        4
 64
     7
 65
   257
 75
     1
175
     1
 42
1.0
 92
       12
 66
     7
 43
1.0
 76
     1
 77
     6
 78
     2
 67
     7
 79
     5
170
     0
171
     0
290
     0
174
     0
 93
        1
 44
0.0
173
     0
291
     1
 45
0.0
1001
ACAD
1000
AcDbSavedByObjectVersion
1070
     0
  0
VISUALSTYLE
  5
1061
102
{ACAD_XDICTIONARY
360
381F
102
}
102
{ACAD_REACTORS
330
105A
102
}
330
105A
100
AcDbVisualStyle
  2

 70
     5
 71
     0
 72
     2
 73
     0
 90
        0
 40
-0.6
 41
-30.0
 62
     5
 63
     7
 74
     1
 91
        4
 64
     7
 65
   257
 75
     1
175
     1
 42
1.0
 92
        0
 66
   257
 43
1.0
 76
     1
 77
     6
 78
     2
 67
     7
 79
     3
170
     0
171
     0
290
     0
174
     0
 93
        1
 44
0.0
173
     0
291
     0
 45
0.0
1001
ACAD
1000
AcDbSavedByObjectVersion
1070
     0
  0
VISUALSTYLE
  5
106D
102
{ACAD_XDICTIONARY
360
3837
102
}
102
{ACAD_REACTORS
330
105A
102
}
330
105A
100
AcDbVisualStyle
  2

 70
    25
 71
     2
 72
     2
 73
     1
 90
        1
 40
0.5
 41
-30.0
 62
     5
 63
     7
 74
     1
 91
        0
 64
     7
 65
   257
 75
     1
175
     1
 42
1.0
 92
        8
 66
     7
 43
1.0
 76
     1
 77
     6
 78
     2
 67
     7
 79
     3
170
     0
171
     0
290
     0
174
     0
 93
       13
 44
0.0
173
     0
291
     0
 45
0.0
1001
ACAD
1000
AcDbSavedByObjectVersion
1070
     0
  0
DICTIONARYVAR
  5
1105
102
{ACAD_REACTORS
330
10FF
102
}
330
10FF
100
DictionaryVariables
280
     0
  1
1:1
  0
DICTIONARYVAR
  5
1101
102
{ACAD_REACTORS
330
10FF
102
}
330
10FF
100
DictionaryVariables
280
     0
  1
STANDARD
  0
DICTIONARYVAR
  5
1100
102
{ACAD_REACTORS
330
10FF
102
}
330
10FF
100
DictionaryVariables
280
     0
  1
STANDARD
  0
DICTIONARYVAR
  5
1102
102
{ACAD_REACTORS
330
10FF
102
}
330
10FF
100
DictionaryVariables
280
     0
  1
Metric50
  0
DICTIONARYVAR
  5
1103
102
{ACAD_REACTORS
330
10FF
102
}
330
10FF
100
DictionaryVariables
280
     0
  1
Metric50
  0
DICTIONARYVAR
  5
37A6
102
{ACAD_REACTORS
330
10FF
102
}
330
10FF
100
DictionaryVariables
280
     0
  1
1
  0
DICTIONARYVAR
  5
37A5
102
{ACAD_REACTORS
330
10FF
102
}
330
10FF
100
DictionaryVariables
280
     0
  1
0
  0
DICTIONARYVAR
  5
1107
102
{ACAD_REACTORS
330
10FF
102
}
330
10FF
100
DictionaryVariables
280
     0
  1
1
  0
DICTIONARYVAR
  5
1108
102
{ACAD_REACTORS
330
10FF
102
}
330
10FF
100
DictionaryVariables
280
     0
  1
15
  0
DICTIONARYVAR
  5
1106
102
{ACAD_REACTORS
330
10FF
102
}
330
10FF
100
DictionaryVariables
280
     0
  1
0
  0
DICTIONARYVAR
  5
1104
102
{ACAD_REACTORS
330
10FF
102
}
330
10FF
100
DictionaryVariables
280
     0
  1
0
  0
DICTIONARYVAR
  5
37A4
102
{ACAD_REACTORS
330
10FF
102
}
330
10FF
100
DictionaryVariables
280
     0
  1
127
  0
DICTIONARYVAR
  5
3808
102
{ACAD_REACTORS
330
10FF
102
}
330
10FF
100
DictionaryVariables
280
     0
  1
2
  0
DICTIONARY
  5
3848
330
108D
100
AcDbDictionary
280
     1
281
     1
  3
ACAD_XREC_ROUNDTRIP
360
3849
  0
DICTIONARY
  5
380D
330
22
100
AcDbDictionary
280
     1
281
     1
  3
ACAD_XREC_ROUNDTRIP
360
380E
  0
DICTIONARY
  5
380F
330
51
100
AcDbDictionary
280
     1
281
     1
  3
ACAD_XREC_ROUNDTRIP
360
3810
  0
DICTIONARY
  5
3811
330
56
100
AcDbDictionary
280
     1
281
     1
  3
ACAD_XREC_ROUNDTRIP
360
3812
  0
DICTIONARY
  5
37BF
330
104A
100
AcDbDictionary
280
     1
281
     1
  3
ACAD_XREC_ROUNDTRIP
360
37C0
  0
DICTIONARY
  5
37BD
330
1042
100
AcDbDictionary
280
     1
281
     1
  3
ACAD_XREC_ROUNDTRIP
360
37BE
  0
DICTIONARY
  5
37C1
330
1052
100
AcDbDictionary
280
     1
281
     1
  3
ACAD_XREC_ROUNDTRIP
360
37C2
  0
DICTIONARY
  5
3844
330
1089
100
AcDbDictionary
280
     1
281
     1
  3
ACAD_XREC_ROUNDTRIP
360
3845
  0
DICTIONARY
  5
3846
330
108B
100
AcDbDictionary
280
     1
281
     1
  3
ACAD_XREC_ROUNDTRIP
360
3847
  0
DICTIONARY
  5
37A8
330
1075
100
AcDbDictionary
280
     1
281
     1
  3
ACAD_ROUNDTRIP_2008_TABLESTYLE_CELLSTYLEMAP
360
3809
  3
ACAD_XREC_ROUNDTRIP
360
3843
  0
DICTIONARY
  5
381D
330
1060
100
AcDbDictionary
280
     1
281
     1
  3
ACAD_XREC_ROUNDTRIP
360
381E
  0
DICTIONARY
  5
381B
330
105F
100
AcDbDictionary
280
     1
281
     1
  3
ACAD_XREC_ROUNDTRIP
360
381C
  0
DICTIONARY
  5
3829
330
1066
100
AcDbDictionary
280
     1
281
     1
  3
ACAD_XREC_ROUNDTRIP
360
382A
  0
DICTIONARY
  5
3831
330
106A
100
AcDbDictionary
280
     1
281
     1
  3
ACAD_XREC_ROUNDTRIP
360
3832
  0
DICTIONARY
  5
3823
330
1063
100
AcDbDictionary
280
     1
281
     1
  3
ACAD_XREC_ROUNDTRIP
360
3824
  0
DICTIONARY
  5
3827
330
1065
100
AcDbDictionary
280
     1
281
     1
  3
ACAD_XREC_ROUNDTRIP
360
3828
  0
DICTIONARY
  5
3841
330
1072
100
AcDbDictionary
280
     1
281
     1
  3
ACAD_XREC_ROUNDTRIP
360
3842
  0
DICTIONARY
  5
382F
330
1069
100
AcDbDictionary
280
     1
281
     1
  3
ACAD_XREC_ROUNDTRIP
360
3830
  0
DICTIONARY
  5
3813
330
105B
100
AcDbDictionary
280
     1
281
     1
  3
ACAD_XREC_ROUNDTRIP
360
3814
  0
DICTIONARY
  5
3815
330
105C
100
AcDbDictionary
280
     1
281
     1
  3
ACAD_XREC_ROUNDTRIP
360
3816
  0
DICTIONARY
  5
3817
330
105D
100
AcDbDictionary
280
     1
281
     1
  3
ACAD_XREC_ROUNDTRIP
360
3818
  0
DICTIONARY
  5
3819
330
105E
100
AcDbDictionary
280
     1
281
     1
  3
ACAD_XREC_ROUNDTRIP
360
381A
  0
DICTIONARY
  5
3821
330
1062
100
AcDbDictionary
280
     1
281
     1
  3
ACAD_XREC_ROUNDTRIP
360
3822
  0
DICTIONARY
  5
383D
330
1070
100
AcDbDictionary
280
     1
281
     1
  3
ACAD_XREC_ROUNDTRIP
360
383E
  0
DICTIONARY
  5
382D
330
1068
100
AcDbDictionary
280
     1
281
     1
  3
ACAD_XREC_ROUNDTRIP
360
382E
  0
DICTIONARY
  5
383F
330
1071
100
AcDbDictionary
280
     1
281
     1
  3
ACAD_XREC_ROUNDTRIP
360
3840
  0
DICTIONARY
  5
3825
330
1064
100
AcDbDictionary
280
     1
281
     1
  3
ACAD_XREC_ROUNDTRIP
360
3826
  0
DICTIONARY
  5
383B
330
106F
100
AcDbDictionary
280
     1
281
     1
  3
ACAD_XREC_ROUNDTRIP
360
383C
  0
DICTIONARY
  5
3839
330
106E
100
AcDbDictionary
280
     1
281
     1
  3
ACAD_XREC_ROUNDTRIP
360
383A
  0
DICTIONARY
  5
3833
330
106B
100
AcDbDictionary
280
     1
281
     1
  3
ACAD_XREC_ROUNDTRIP
360
3834
  0
DICTIONARY
  5
3835
330
106C
100
AcDbDictionary
280
     1
281
     1
  3
ACAD_XREC_ROUNDTRIP
360
3836
  0
DICTIONARY
  5
382B
330
1067
100
AcDbDictionary
280
     1
281
     1
  3
ACAD_XREC_ROUNDTRIP
360
382C
  0
DICTIONARY
  5
381F
330
1061
100
AcDbDictionary
280
     1
281
     1
  3
ACAD_XREC_ROUNDTRIP
360
3820
  0
DICTIONARY
  5
3837
330
106D
100
AcDbDictionary
280
     1
281
     1
  3
ACAD_XREC_ROUNDTRIP
360
3838
  0
XRECORD
  5
3849
102
{ACAD_REACTORS
330
3848
102
}
330
3848
100
AcDbXrecord
280
     1
102
DISPLAYNAME
  1
Metric50
102
FLAGS
 90
        0
  0
XRECORD
  5
380E
102
{ACAD_REACTORS
330
380D
102
}
330
380D
100
AcDbXrecord
280
     1
102
SHADEPLOT
 70
     0
102
SHADEPLOTRESLEVEL
 70
     2
102
SHADEPLOTCUSTOMDPI
 70
   300
  0
XRECORD
  5
3810
102
{ACAD_REACTORS
330
380F
102
}
330
380F
100
AcDbXrecord
280
     1
102
SHADEPLOT
 70
     0
102
SHADEPLOTRESLEVEL
 70
     2
102
SHADEPLOTCUSTOMDPI
 70
   300
  0
XRECORD
  5
3812
102
{ACAD_REACTORS
330
3811
102
}
330
3811
100
AcDbXrecord
280
     1
102
SHADEPLOT
 70
     0
102
SHADEPLOTRESLEVEL
 70
     2
102
SHADEPLOTCUSTOMDPI
 70
   300
  0
XRECORD
  5
37C0
102
{ACAD_REACTORS
330
37BF
102
}
330
37BF
100
AcDbXrecord
280
     1
102
MATERIAL
148
0.0
149
0.0
149
0.0
 93
        0
 94
      127
282
     0
 72
     0
 77
     0
171
     0
175
     0
179
     0
273
     0
  0
XRECORD
  5
37BE
102
{ACAD_REACTORS
330
37BD
102
}
330
37BD
100
AcDbXrecord
280
     1
102
MATERIAL
148
0.0
149
0.0
149
0.0
 93
        0
 94
      127
282
     0
 72
     0
 77
     0
171
     0
175
     0
179
     0
273
     0
  0
XRECORD
  5
37C2
102
{ACAD_REACTORS
330
37C1
102
}
330
37C1
100
AcDbXrecord
280
     1
102
MATERIAL
148
0.0
149
0.0
149
0.0
 93
        0
 94
      127
282
     0
 72
     0
 77
     0
171
     0
175
     0
179
     0
273
     0
  0
XRECORD
  5
3845
102
{ACAD_REACTORS
330
3844
102
}
330
3844
100
AcDbXrecord
280
     1
102
ACAD_ROUNDTRIP_2012_MLEADER_STYLE
298
     1
  0
XRECORD
  5
3847
102
{ACAD_REACTORS
330
3846
102
}
330
3846
100
AcDbXrecord
280
     1
102
DISPLAYNAME
  1
Metric50
102
FLAGS
 90
        0
  0
CELLSTYLEMAP
  5
3809
102
{ACAD_REACTORS
330
37A8
102
}
330
37A8
100
AcDbCellStyleMap
 90
        3
300
CELLSTYLE
  1
TABLEFORMAT_BEGIN
 90
        5
170
     1
 91
        0
 92
    32768
 62
   257
 93
        1
300
CONTENTFORMAT
  1
CONTENTFORMAT_BEGIN
 90
        0
 91
        0
 92
      512
 93
        0
300

 40
0.0
140
1.0
 94
        5
 62
     0
340
11
144
6.0
309
CONTENTFORMAT_END
171
     1
301
MARGIN
  1
CELLMARGIN_BEGIN
 40
1.5
 40
1.5
 40
1.5
 40
1.5
 40
0.18
 40
0.18
309
CELLMARGIN_END
 94
        6
 95
        1
302
GRIDFORMAT
  1
GRIDFORMAT_BEGIN
 90
        0
 91
        1
 62
     0
 92
       -2
340
0
 93
        0
 40
1.125
309
GRIDFORMAT_END
 95
        2
302
GRIDFORMAT
  1
GRIDFORMAT_BEGIN
 90
        0
 91
        1
 62
     0
 92
       -2
340
0
 93
        0
 40
1.125
309
GRIDFORMAT_END
 95
        4
302
GRIDFORMAT
  1
GRIDFORMAT_BEGIN
 90
        0
 91
        1
 62
     0
 92
       -2
340
0
 93
        0
 40
1.125
309
GRIDFORMAT_END
 95
        8
302
GRIDFORMAT
  1
GRIDFORMAT_BEGIN
 90
        0
 91
        1
 62
     0
 92
       -2
340
0
 93
        0
 40
1.125
309
GRIDFORMAT_END
 95
       16
302
GRIDFORMAT
  1
GRIDFORMAT_BEGIN
 90
        0
 91
        1
 62
     0
 92
       -2
340
0
 93
        0
 40
1.125
309
GRIDFORMAT_END
 95
       32
302
GRIDFORMAT
  1
GRIDFORMAT_BEGIN
 90
        0
 91
        1
 62
     0
 92
       -2
340
0
 93
        0
 40
1.125
309
GRIDFORMAT_END
309
TABLEFORMAT_END
  1
CELLSTYLE_BEGIN
 90
        1
 91
        1
300
_TITLE
309
CELLSTYLE_END
300
CELLSTYLE
  1
TABLEFORMAT_BEGIN
 90
        5
170
     1
 91
        0
 92
        0
 62
   257
 93
        1
300
CONTENTFORMAT
  1
CONTENTFORMAT_BEGIN
 90
        0
 91
        0
 92
      512
 93
        0
300

 40
0.0
140
1.0
 94
        5
 62
     0
340
11
144
4.5
309
CONTENTFORMAT_END
171
     1
301
MARGIN
  1
CELLMARGIN_BEGIN
 40
1.5
 40
1.5
 40
1.5
 40
1.5
 40
0.18
 40
0.18
309
CELLMARGIN_END
 94
        6
 95
        1
302
GRIDFORMAT
  1
GRIDFORMAT_BEGIN
 90
        0
 91
        1
 62
     0
 92
       -2
340
0
 93
        0
 40
1.125
309
GRIDFORMAT_END
 95
        2
302
GRIDFORMAT
  1
GRIDFORMAT_BEGIN
 90
        0
 91
        1
 62
     0
 92
       -2
340
0
 93
        0
 40
1.125
309
GRIDFORMAT_END
 95
        4
302
GRIDFORMAT
  1
GRIDFORMAT_BEGIN
 90
        0
 91
        1
 62
     0
 92
       -2
340
0
 93
        0
 40
1.125
309
GRIDFORMAT_END
 95
        8
302
GRIDFORMAT
  1
GRIDFORMAT_BEGIN
 90
        0
 91
        1
 62
     0
 92
       -2
340
0
 93
        0
 40
1.125
309
GRIDFORMAT_END
 95
       16
302
GRIDFORMAT
  1
GRIDFORMAT_BEGIN
 90
        0
 91
        1
 62
     0
 92
       -2
340
0
 93
        0
 40
1.125
309
GRIDFORMAT_END
 95
       32
302
GRIDFORMAT
  1
GRIDFORMAT_BEGIN
 90
        0
 91
        1
 62
     0
 92
       -2
340
0
 93
        0
 40
1.125
309
GRIDFORMAT_END
309
TABLEFORMAT_END
  1
CELLSTYLE_BEGIN
 90
        2
 91
        1
300
_HEADER
309
CELLSTYLE_END
300
CELLSTYLE
  1
TABLEFORMAT_BEGIN
 90
        5
170
     1
 91
        0
 92
        0
 62
   257
 93
        1
300
CONTENTFORMAT
  1
CONTENTFORMAT_BEGIN
 90
        0
 91
        0
 92
      512
 93
        0
300

 40
0.0
140
1.0
 94
        2
 62
     0
340
11
144
4.5
309
CONTENTFORMAT_END
171
     1
301
MARGIN
  1
CELLMARGIN_BEGIN
 40
1.5
 40
1.5
 40
1.5
 40
1.5
 40
0.18
 40
0.18
309
CELLMARGIN_END
 94
        6
 95
        1
302
GRIDFORMAT
  1
GRIDFORMAT_BEGIN
 90
        0
 91
        1
 62
     0
 92
       -2
340
0
 93
        0
 40
1.125
309
GRIDFORMAT_END
 95
        2
302
GRIDFORMAT
  1
GRIDFORMAT_BEGIN
 90
        0
 91
        1
 62
     0
 92
       -2
340
0
 93
        0
 40
1.125
309
GRIDFORMAT_END
 95
        4
302
GRIDFORMAT
  1
GRIDFORMAT_BEGIN
 90
        0
 91
        1
 62
     0
 92
       -2
340
0
 93
        0
 40
1.125
309
GRIDFORMAT_END
 95
        8
302
GRIDFORMAT
  1
GRIDFORMAT_BEGIN
 90
        0
 91
        1
 62
     0
 92
       -2
340
0
 93
        0
 40
1.125
309
GRIDFORMAT_END
 95
       16
302
GRIDFORMAT
  1
GRIDFORMAT_BEGIN
 90
        0
 91
        1
 62
     0
 92
       -2
340
0
 93
        0
 40
1.125
309
GRIDFORMAT_END
 95
       32
302
GRIDFORMAT
  1
GRIDFORMAT_BEGIN
 90
        0
 91
        1
 62
     0
 92
       -2
340
0
 93
        0
 40
1.125
309
GRIDFORMAT_END
309
TABLEFORMAT_END
  1
CELLSTYLE_BEGIN
 90
        3
 91
        2
300
_DATA
309
CELLSTYLE_END
  0
XRECORD
  5
3843
102
{ACAD_REACTORS
330
37A8
102
}
330
37A8
100
AcDbXrecord
280
     1
102
ACAD_ROUNDTRIP_PRE2007_TABLESTYLE
 90
      512
 91
        0
  1

 92
      512
 93
        0
  2

 94
      512
 95
        0
  3

  0
XRECORD
  5
381E
102
{ACAD_REACTORS
330
381D
102
}
330
381D
100
AcDbXrecord
280
     1
102
RTVSPost2010Prop28
280
     1
102
RTVSPost2010PropOp28
 70
     1
102
RTVSPost2010Prop29
280
     1
102
RTVSPost2010PropOp29
 70
     1
102
RTVSPost2010Prop30
280
     0
102
RTVSPost2010PropOp30
 70
     1
102
RTVSPost2010Prop31
280
     0
102
RTVSPost2010PropOp31
 70
     1
102
RTVSPost2010Prop32
280
     0
102
RTVSPost2010PropOp32
 70
     1
102
RTVSPost2010Prop33
280
     0
102
RTVSPost2010PropOp33
 70
     1
102
RTVSPost2010Prop34
280
     0
102
RTVSPost2010PropOp34
 70
     1
102
RTVSPost2010Prop35
280
     0
102
RTVSPost2010PropOp35
 70
     1
102
RTVSPost2010Prop36
280
     0
102
RTVSPost2010PropOp36
 70
     1
102
RTVSPost2010Prop37
 90
       50
102
RTVSPost2010PropOp37
 70
     1
102
RTVSPost2010Prop38
140
0.0
102
RTVSPost2010PropOp38
 70
     1
102
RTVSPost2010Prop39
140
1.0
102
RTVSPost2010PropOp39
 70
     1
102
RTVSPost2010Prop40
 90
        0
102
RTVSPost2010PropOp40
 70
     1
102
RTVSPost2010Prop41ColorIndex
 90
       18
102
RTVSPost2010Prop41ColorRGB
 90
        0
102
RTVSPost2010PropOp41
 70
     1
102
RTVSPost2010Prop42
 90
       50
102
RTVSPost2010PropOp42
 70
     1
102
RTVSPost2010Prop43
 90
        3
102
RTVSPost2010PropOp43
 70
     1
102
RTVSPost2010Prop44ColorIndex
 90
        5
102
RTVSPost2010Prop44ColorRGB
 90
      255
102
RTVSPost2010PropOp44
 70
     1
102
RTVSPost2010Prop45
280
     0
102
RTVSPost2010PropOp45
 70
     1
102
RTVSPost2010Prop46
 90
       50
102
RTVSPost2010PropOp46
 70
     1
102
RTVSPost2010Prop47
 90
       50
102
RTVSPost2010PropOp47
 70
     1
102
RTVSPost2010Prop48
 90
       50
102
RTVSPost2010PropOp48
 70
     1
102
RTVSPost2010Prop49
280
     0
102
RTVSPost2010PropOp49
 70
     1
102
RTVSPost2010Prop50
 90
       50
102
RTVSPost2010PropOp50
 70
     1
102
RTVSPost2010Prop51ColorIndex
 90
      256
102
RTVSPost2010Prop51ColorRGB
 90
-16777216
102
RTVSPost2010PropOp51
 70
     0
102
RTVSPost2010Prop52
140
1.0
102
RTVSPost2010PropOp52
 70
     0
102
RTVSPost2010Prop53
 90
        2
102
RTVSPost2010PropOp53
 70
     1
102
RTVSPost2010Prop54
  1
strokes_ogs.tif
102
RTVSPost2010PropOp54
 70
     1
102
RTVSPost2010Prop55
280
     0
102
RTVSPost2010PropOp55
 70
     1
102
RTVSPost2010Prop56
140
1.0
102
RTVSPost2010PropOp56
 70
     1
102
RTVSPost2010Prop57
140
1.0
102
RTVSPost2010PropOp57
 70
     1
102
RTVSPropertyOp0
 70
     1
102
RTVSPropertyOp1
 70
     1
102
RTVSPropertyOp2
 70
     1
102
RTVSPropertyOp3
 70
     1
102
RTVSPropertyOp4
 70
     1
102
RTVSPropertyOp5
 70
     1
102
RTVSPropertyOp6
 70
     1
102
RTVSPropertyOp7
 70
     1
102
RTVSPropertyOp8
 70
     1
102
RTVSPropertyOp9
 70
     1
102
RTVSPropertyOp10
 70
     1
102
RTVSPropertyOp11
 70
     1
102
RTVSPropertyOp12
 70
     1
102
RTVSPropertyOp13
 70
     1
102
RTVSPropertyOp14
 70
     1
102
RTVSPropertyOp15
 70
     1
102
RTVSPropertyOp16
 70
     1
102
RTVSPropertyOp17
 70
     1
102
RTVSPropertyOp18
 70
     1
102
RTVSPropertyOp19
 70
     1
102
RTVSPropertyOp20
 70
     1
102
RTVSPropertyOp21
 70
     1
102
RTVSPropertyOp22
 70
     1
102
RTVSPropertyOp23
 70
     1
102
RTVSPropertyOp24
 70
     1
102
RTVSPropertyOp25
 70
     1
102
RTVSPropertyOp26
 70
     1
102
RTVSPropertyOp27
 70
     1
102
RTVSPropertyOp28
 70
     1
102
RTVSPropertyOp29
 70
     1
102
RTVSPropertyOp30
 70
     1
102
RTVSPropertyOp31
 70
     1
102
RTVSPropertyOp32
 70
     1
102
RTVSPropertyOp33
 70
     1
102
RTVSPropertyOp34
 70
     1
102
RTVSPropertyOp35
 70
     1
102
RTVSPropertyOp36
 70
     1
102
RTVSPropertyOp37
 70
     1
102
RTVSPropertyOp38
 70
     1
102
RTVSPropertyOp39
 70
     1
102
RTVSPropertyOp40
 70
     1
102
RTVSPropertyOp41
 70
     1
102
RTVSPropertyOp42
 70
     1
102
RTVSPropertyOp43
 70
     1
102
RTVSPropertyOp44
 70
     1
102
RTVSPropertyOp45
 70
     1
102
RTVSPropertyOp46
 70
     1
102
RTVSPropertyOp47
 70
     1
102
RTVSPropertyOp48
 70
     1
102
RTVSPropertyOp49
 70
     1
102
RTVSPropertyOp50
 70
     1
102
RTVSPropertyOp51
 70
     0
102
RTVSPropertyOp52
 70
     0
102
RTVSPropertyOp53
 70
     1
102
RTVSPropertyOp54
 70
     1
102
RTVSPropertyOp55
 70
     1
102
RTVSPropertyOp56
 70
     1
102
RTVSPropertyOp57
 70
     1
102
RTVSPropertyOp58
 70
     1
102
RTVSPropertyOp59
 70
     1
102
RTVSPropertyOp60
 70
     1
102
RTVSPropertyOp61
 70
     1
102
RTVSPropertyOp62
 70
     1
  0
XRECORD
  5
381C
102
{ACAD_REACTORS
330
381B
102
}
330
381B
100
AcDbXrecord
280
     1
102
RTVSPost2010Prop28
280
     0
102
RTVSPost2010PropOp28
 70
     1
102
RTVSPost2010Prop29
280
     1
102
RTVSPost2010PropOp29
 70
     1
102
RTVSPost2010Prop30
280
     1
102
RTVSPost2010PropOp30
 70
     1
102
RTVSPost2010Prop31
280
     0
102
RTVSPost2010PropOp31
 70
     1
102
RTVSPost2010Prop32
280
     0
102
RTVSPost2010PropOp32
 70
     1
102
RTVSPost2010Prop33
280
     0
102
RTVSPost2010PropOp33
 70
     1
102
RTVSPost2010Prop34
280
     0
102
RTVSPost2010PropOp34
 70
     1
102
RTVSPost2010Prop35
280
     0
102
RTVSPost2010PropOp35
 70
     1
102
RTVSPost2010Prop36
280
     0
102
RTVSPost2010PropOp36
 70
     1
102
RTVSPost2010Prop37
 90
       50
102
RTVSPost2010PropOp37
 70
     1
102
RTVSPost2010Prop38
140
0.0
102
RTVSPost2010PropOp38
 70
     1
102
RTVSPost2010Prop39
140
1.0
102
RTVSPost2010PropOp39
 70
     1
102
RTVSPost2010Prop40
 90
        0
102
RTVSPost2010PropOp40
 70
     1
102
RTVSPost2010Prop41ColorIndex
 90
       18
102
RTVSPost2010Prop41ColorRGB
 90
        0
102
RTVSPost2010PropOp41
 70
     1
102
RTVSPost2010Prop42
 90
       50
102
RTVSPost2010PropOp42
 70
     1
102
RTVSPost2010Prop43
 90
        3
102
RTVSPost2010PropOp43
 70
     1
102
RTVSPost2010Prop44ColorIndex
 90
        5
102
RTVSPost2010Prop44ColorRGB
 90
      255
102
RTVSPost2010PropOp44
 70
     1
102
RTVSPost2010Prop45
280
     0
102
RTVSPost2010PropOp45
 70
     1
102
RTVSPost2010Prop46
 90
       50
102
RTVSPost2010PropOp46
 70
     1
102
RTVSPost2010Prop47
 90
       50
102
RTVSPost2010PropOp47
 70
     1
102
RTVSPost2010Prop48
 90
       50
102
RTVSPost2010PropOp48
 70
     1
102
RTVSPost2010Prop49
280
     0
102
RTVSPost2010PropOp49
 70
     1
102
RTVSPost2010Prop50
 90
       50
102
RTVSPost2010PropOp50
 70
     1
102
RTVSPost2010Prop51ColorIndex
 90
      256
102
RTVSPost2010Prop51ColorRGB
 90
-16777216
102
RTVSPost2010PropOp51
 70
     0
102
RTVSPost2010Prop52
140
1.0
102
RTVSPost2010PropOp52
 70
     0
102
RTVSPost2010Prop53
 90
        2
102
RTVSPost2010PropOp53
 70
     1
102
RTVSPost2010Prop54
  1
strokes_ogs.tif
102
RTVSPost2010PropOp54
 70
     1
102
RTVSPost2010Prop55
280
     0
102
RTVSPost2010PropOp55
 70
     1
102
RTVSPost2010Prop56
140
1.0
102
RTVSPost2010PropOp56
 70
     1
102
RTVSPost2010Prop57
140
1.0
102
RTVSPost2010PropOp57
 70
     1
102
RTVSPropertyOp0
 70
     1
102
RTVSPropertyOp1
 70
     1
102
RTVSPropertyOp2
 70
     1
102
RTVSPropertyOp3
 70
     1
102
RTVSPropertyOp4
 70
     1
102
RTVSPropertyOp5
 70
     1
102
RTVSPropertyOp6
 70
     1
102
RTVSPropertyOp7
 70
     1
102
RTVSPropertyOp8
 70
     1
102
RTVSPropertyOp9
 70
     1
102
RTVSPropertyOp10
 70
     1
102
RTVSPropertyOp11
 70
     1
102
RTVSPropertyOp12
 70
     1
102
RTVSPropertyOp13
 70
     1
102
RTVSPropertyOp14
 70
     1
102
RTVSPropertyOp15
 70
     1
102
RTVSPropertyOp16
 70
     1
102
RTVSPropertyOp17
 70
     1
102
RTVSPropertyOp18
 70
     1
102
RTVSPropertyOp19
 70
     1
102
RTVSPropertyOp20
 70
     1
102
RTVSPropertyOp21
 70
     1
102
RTVSPropertyOp22
 70
     1
102
RTVSPropertyOp23
 70
     1
102
RTVSPropertyOp24
 70
     1
102
RTVSPropertyOp25
 70
     1
102
RTVSPropertyOp26
 70
     1
102
RTVSPropertyOp27
 70
     1
102
RTVSPropertyOp28
 70
     1
102
RTVSPropertyOp29
 70
     1
102
RTVSPropertyOp30
 70
     1
102
RTVSPropertyOp31
 70
     1
102
RTVSPropertyOp32
 70
     1
102
RTVSPropertyOp33
 70
     1
102
RTVSPropertyOp34
 70
     1
102
RTVSPropertyOp35
 70
     1
102
RTVSPropertyOp36
 70
     1
102
RTVSPropertyOp37
 70
     1
102
RTVSPropertyOp38
 70
     1
102
RTVSPropertyOp39
 70
     1
102
RTVSPropertyOp40
 70
     1
102
RTVSPropertyOp41
 70
     1
102
RTVSPropertyOp42
 70
     1
102
RTVSPropertyOp43
 70
     1
102
RTVSPropertyOp44
 70
     1
102
RTVSPropertyOp45
 70
     1
102
RTVSPropertyOp46
 70
     1
102
RTVSPropertyOp47
 70
     1
102
RTVSPropertyOp48
 70
     1
102
RTVSPropertyOp49
 70
     1
102
RTVSPropertyOp50
 70
     1
102
RTVSPropertyOp51
 70
     0
102
RTVSPropertyOp52
 70
     0
102
RTVSPropertyOp53
 70
     1
102
RTVSPropertyOp54
 70
     1
102
RTVSPropertyOp55
 70
     1
102
RTVSPropertyOp56
 70
     1
102
RTVSPropertyOp57
 70
     1
102
RTVSPropertyOp58
 70
     1
102
RTVSPropertyOp59
 70
     1
102
RTVSPropertyOp60
 70
     1
102
RTVSPropertyOp61
 70
     1
102
RTVSPropertyOp62
 70
     1
  0
XRECORD
  5
382A
102
{ACAD_REACTORS
330
3829
102
}
330
3829
100
AcDbXrecord
280
     1
102
RTVSPost2010Prop28
280
     0
102
RTVSPost2010PropOp28
 70
     1
102
RTVSPost2010Prop29
280
     1
102
RTVSPost2010PropOp29
 70
     1
102
RTVSPost2010Prop30
280
     1
102
RTVSPost2010PropOp30
 70
     1
102
RTVSPost2010Prop31
280
     0
102
RTVSPost2010PropOp31
 70
     1
102
RTVSPost2010Prop32
280
     0
102
RTVSPost2010PropOp32
 70
     1
102
RTVSPost2010Prop33
280
     0
102
RTVSPost2010PropOp33
 70
     1
102
RTVSPost2010Prop34
280
     0
102
RTVSPost2010PropOp34
 70
     1
102
RTVSPost2010Prop35
280
     0
102
RTVSPost2010PropOp35
 70
     1
102
RTVSPost2010Prop36
280
     0
102
RTVSPost2010PropOp36
 70
     1
102
RTVSPost2010Prop37
 90
       50
102
RTVSPost2010PropOp37
 70
     1
102
RTVSPost2010Prop38
140
0.0
102
RTVSPost2010PropOp38
 70
     1
102
RTVSPost2010Prop39
140
1.0
102
RTVSPost2010PropOp39
 70
     1
102
RTVSPost2010Prop40
 90
        0
102
RTVSPost2010PropOp40
 70
     1
102
RTVSPost2010Prop41ColorIndex
 90
       18
102
RTVSPost2010Prop41ColorRGB
 90
        0
102
RTVSPost2010PropOp41
 70
     1
102
RTVSPost2010Prop42
 90
       50
102
RTVSPost2010PropOp42
 70
     1
102
RTVSPost2010Prop43
 90
        3
102
RTVSPost2010PropOp43
 70
     1
102
RTVSPost2010Prop44ColorIndex
 90
        5
102
RTVSPost2010Prop44ColorRGB
 90
      255
102
RTVSPost2010PropOp44
 70
     1
102
RTVSPost2010Prop45
280
     0
102
RTVSPost2010PropOp45
 70
     1
102
RTVSPost2010Prop46
 90
       50
102
RTVSPost2010PropOp46
 70
     1
102
RTVSPost2010Prop47
 90
       50
102
RTVSPost2010PropOp47
 70
     1
102
RTVSPost2010Prop48
 90
       50
102
RTVSPost2010PropOp48
 70
     1
102
RTVSPost2010Prop49
280
     0
102
RTVSPost2010PropOp49
 70
     1
102
RTVSPost2010Prop50
 90
       50
102
RTVSPost2010PropOp50
 70
     1
102
RTVSPost2010Prop51ColorIndex
 90
      256
102
RTVSPost2010Prop51ColorRGB
 90
-16777216
102
RTVSPost2010PropOp51
 70
     0
102
RTVSPost2010Prop52
140
1.0
102
RTVSPost2010PropOp52
 70
     0
102
RTVSPost2010Prop53
 90
        2
102
RTVSPost2010PropOp53
 70
     1
102
RTVSPost2010Prop54
  1
strokes_ogs.tif
102
RTVSPost2010PropOp54
 70
     1
102
RTVSPost2010Prop55
280
     0
102
RTVSPost2010PropOp55
 70
     1
102
RTVSPost2010Prop56
140
1.0
102
RTVSPost2010PropOp56
 70
     1
102
RTVSPost2010Prop57
140
1.0
102
RTVSPost2010PropOp57
 70
     1
102
RTVSPropertyOp0
 70
     1
102
RTVSPropertyOp1
 70
     1
102
RTVSPropertyOp2
 70
     1
102
RTVSPropertyOp3
 70
     1
102
RTVSPropertyOp4
 70
     1
102
RTVSPropertyOp5
 70
     1
102
RTVSPropertyOp6
 70
     1
102
RTVSPropertyOp7
 70
     1
102
RTVSPropertyOp8
 70
     1
102
RTVSPropertyOp9
 70
     1
102
RTVSPropertyOp10
 70
     1
102
RTVSPropertyOp11
 70
     1
102
RTVSPropertyOp12
 70
     1
102
RTVSPropertyOp13
 70
     1
102
RTVSPropertyOp14
 70
     1
102
RTVSPropertyOp15
 70
     1
102
RTVSPropertyOp16
 70
     1
102
RTVSPropertyOp17
 70
     1
102
RTVSPropertyOp18
 70
     1
102
RTVSPropertyOp19
 70
     1
102
RTVSPropertyOp20
 70
     1
102
RTVSPropertyOp21
 70
     1
102
RTVSPropertyOp22
 70
     1
102
RTVSPropertyOp23
 70
     1
102
RTVSPropertyOp24
 70
     1
102
RTVSPropertyOp25
 70
     1
102
RTVSPropertyOp26
 70
     1
102
RTVSPropertyOp27
 70
     1
102
RTVSPropertyOp28
 70
     1
102
RTVSPropertyOp29
 70
     1
102
RTVSPropertyOp30
 70
     1
102
RTVSPropertyOp31
 70
     1
102
RTVSPropertyOp32
 70
     1
102
RTVSPropertyOp33
 70
     1
102
RTVSPropertyOp34
 70
     1
102
RTVSPropertyOp35
 70
     1
102
RTVSPropertyOp36
 70
     1
102
RTVSPropertyOp37
 70
     1
102
RTVSPropertyOp38
 70
     1
102
RTVSPropertyOp39
 70
     1
102
RTVSPropertyOp40
 70
     1
102
RTVSPropertyOp41
 70
     1
102
RTVSPropertyOp42
 70
     1
102
RTVSPropertyOp43
 70
     1
102
RTVSPropertyOp44
 70
     1
102
RTVSPropertyOp45
 70
     1
102
RTVSPropertyOp46
 70
     1
102
RTVSPropertyOp47
 70
     1
102
RTVSPropertyOp48
 70
     1
102
RTVSPropertyOp49
 70
     1
102
RTVSPropertyOp50
 70
     1
102
RTVSPropertyOp51
 70
     0
102
RTVSPropertyOp52
 70
     0
102
RTVSPropertyOp53
 70
     1
102
RTVSPropertyOp54
 70
     1
102
RTVSPropertyOp55
 70
     1
102
RTVSPropertyOp56
 70
     1
102
RTVSPropertyOp57
 70
     1
102
RTVSPropertyOp58
 70
     1
102
RTVSPropertyOp59
 70
     1
102
RTVSPropertyOp60
 70
     1
102
RTVSPropertyOp61
 70
     1
102
RTVSPropertyOp62
 70
     1
  0
XRECORD
  5
3832
102
{ACAD_REACTORS
330
3831
102
}
330
3831
100
AcDbXrecord
280
     1
102
RTVSPost2010Prop28
280
     0
102
RTVSPost2010PropOp28
 70
     1
102
RTVSPost2010Prop29
280
     1
102
RTVSPost2010PropOp29
 70
     1
102
RTVSPost2010Prop30
280
     1
102
RTVSPost2010PropOp30
 70
     1
102
RTVSPost2010Prop31
280
     0
102
RTVSPost2010PropOp31
 70
     1
102
RTVSPost2010Prop32
280
     0
102
RTVSPost2010PropOp32
 70
     1
102
RTVSPost2010Prop33
280
     0
102
RTVSPost2010PropOp33
 70
     1
102
RTVSPost2010Prop34
280
     0
102
RTVSPost2010PropOp34
 70
     1
102
RTVSPost2010Prop35
280
     0
102
RTVSPost2010PropOp35
 70
     1
102
RTVSPost2010Prop36
280
     0
102
RTVSPost2010PropOp36
 70
     1
102
RTVSPost2010Prop37
 90
       50
102
RTVSPost2010PropOp37
 70
     1
102
RTVSPost2010Prop38
140
0.0
102
RTVSPost2010PropOp38
 70
     1
102
RTVSPost2010Prop39
140
1.0
102
RTVSPost2010PropOp39
 70
     1
102
RTVSPost2010Prop40
 90
        0
102
RTVSPost2010PropOp40
 70
     1
102
RTVSPost2010Prop41ColorIndex
 90
       18
102
RTVSPost2010Prop41ColorRGB
 90
        0
102
RTVSPost2010PropOp41
 70
     1
102
RTVSPost2010Prop42
 90
       50
102
RTVSPost2010PropOp42
 70
     1
102
RTVSPost2010Prop43
 90
        3
102
RTVSPost2010PropOp43
 70
     1
102
RTVSPost2010Prop44ColorIndex
 90
        5
102
RTVSPost2010Prop44ColorRGB
 90
      255
102
RTVSPost2010PropOp44
 70
     1
102
RTVSPost2010Prop45
280
     0
102
RTVSPost2010PropOp45
 70
     1
102
RTVSPost2010Prop46
 90
       50
102
RTVSPost2010PropOp46
 70
     1
102
RTVSPost2010Prop47
 90
       50
102
RTVSPost2010PropOp47
 70
     1
102
RTVSPost2010Prop48
 90
       50
102
RTVSPost2010PropOp48
 70
     1
102
RTVSPost2010Prop49
280
     0
102
RTVSPost2010PropOp49
 70
     1
102
RTVSPost2010Prop50
 90
       50
102
RTVSPost2010PropOp50
 70
     1
102
RTVSPost2010Prop51ColorIndex
 90
      256
102
RTVSPost2010Prop51ColorRGB
 90
-16777216
102
RTVSPost2010PropOp51
 70
     0
102
RTVSPost2010Prop52
140
1.0
102
RTVSPost2010PropOp52
 70
     0
102
RTVSPost2010Prop53
 90
        2
102
RTVSPost2010PropOp53
 70
     1
102
RTVSPost2010Prop54
  1
strokes_ogs.tif
102
RTVSPost2010PropOp54
 70
     1
102
RTVSPost2010Prop55
280
     0
102
RTVSPost2010PropOp55
 70
     1
102
RTVSPost2010Prop56
140
1.0
102
RTVSPost2010PropOp56
 70
     1
102
RTVSPost2010Prop57
140
1.0
102
RTVSPost2010PropOp57
 70
     1
102
RTVSPropertyOp0
 70
     1
102
RTVSPropertyOp1
 70
     1
102
RTVSPropertyOp2
 70
     1
102
RTVSPropertyOp3
 70
     1
102
RTVSPropertyOp4
 70
     1
102
RTVSPropertyOp5
 70
     1
102
RTVSPropertyOp6
 70
     1
102
RTVSPropertyOp7
 70
     1
102
RTVSPropertyOp8
 70
     1
102
RTVSPropertyOp9
 70
     1
102
RTVSPropertyOp10
 70
     1
102
RTVSPropertyOp11
 70
     1
102
RTVSPropertyOp12
 70
     1
102
RTVSPropertyOp13
 70
     1
102
RTVSPropertyOp14
 70
     1
102
RTVSPropertyOp15
 70
     1
102
RTVSPropertyOp16
 70
     1
102
RTVSPropertyOp17
 70
     1
102
RTVSPropertyOp18
 70
     1
102
RTVSPropertyOp19
 70
     1
102
RTVSPropertyOp20
 70
     1
102
RTVSPropertyOp21
 70
     1
102
RTVSPropertyOp22
 70
     1
102
RTVSPropertyOp23
 70
     1
102
RTVSPropertyOp24
 70
     1
102
RTVSPropertyOp25
 70
     1
102
RTVSPropertyOp26
 70
     1
102
RTVSPropertyOp27
 70
     1
102
RTVSPropertyOp28
 70
     1
102
RTVSPropertyOp29
 70
     1
102
RTVSPropertyOp30
 70
     1
102
RTVSPropertyOp31
 70
     1
102
RTVSPropertyOp32
 70
     1
102
RTVSPropertyOp33
 70
     1
102
RTVSPropertyOp34
 70
     1
102
RTVSPropertyOp35
 70
     1
102
RTVSPropertyOp36
 70
     1
102
RTVSPropertyOp37
 70
     1
102
RTVSPropertyOp38
 70
     1
102
RTVSPropertyOp39
 70
     1
102
RTVSPropertyOp40
 70
     1
102
RTVSPropertyOp41
 70
     1
102
RTVSPropertyOp42
 70
     1
102
RTVSPropertyOp43
 70
     1
102
RTVSPropertyOp44
 70
     1
102
RTVSPropertyOp45
 70
     1
102
RTVSPropertyOp46
 70
     1
102
RTVSPropertyOp47
 70
     1
102
RTVSPropertyOp48
 70
     1
102
RTVSPropertyOp49
 70
     1
102
RTVSPropertyOp50
 70
     1
102
RTVSPropertyOp51
 70
     0
102
RTVSPropertyOp52
 70
     0
102
RTVSPropertyOp53
 70
     1
102
RTVSPropertyOp54
 70
     1
102
RTVSPropertyOp55
 70
     1
102
RTVSPropertyOp56
 70
     1
102
RTVSPropertyOp57
 70
     1
102
RTVSPropertyOp58
 70
     1
102
RTVSPropertyOp59
 70
     1
102
RTVSPropertyOp60
 70
     1
102
RTVSPropertyOp61
 70
     1
102
RTVSPropertyOp62
 70
     1
  0
XRECORD
  5
3824
102
{ACAD_REACTORS
330
3823
102
}
330
3823
100
AcDbXrecord
280
     1
102
RTVSPost2010Prop28
280
     0
102
RTVSPost2010PropOp28
 70
     1
102
RTVSPost2010Prop29
280
     1
102
RTVSPost2010PropOp29
 70
     1
102
RTVSPost2010Prop30
280
     1
102
RTVSPost2010PropOp30
 70
     1
102
RTVSPost2010Prop31
280
     0
102
RTVSPost2010PropOp31
 70
     1
102
RTVSPost2010Prop32
280
     0
102
RTVSPost2010PropOp32
 70
     1
102
RTVSPost2010Prop33
280
     0
102
RTVSPost2010PropOp33
 70
     1
102
RTVSPost2010Prop34
280
     0
102
RTVSPost2010PropOp34
 70
     1
102
RTVSPost2010Prop35
280
     0
102
RTVSPost2010PropOp35
 70
     1
102
RTVSPost2010Prop36
280
     0
102
RTVSPost2010PropOp36
 70
     1
102
RTVSPost2010Prop37
 90
       50
102
RTVSPost2010PropOp37
 70
     1
102
RTVSPost2010Prop38
140
0.0
102
RTVSPost2010PropOp38
 70
     1
102
RTVSPost2010Prop39
140
1.0
102
RTVSPost2010PropOp39
 70
     1
102
RTVSPost2010Prop40
 90
        0
102
RTVSPost2010PropOp40
 70
     1
102
RTVSPost2010Prop41ColorIndex
 90
       18
102
RTVSPost2010Prop41ColorRGB
 90
        0
102
RTVSPost2010PropOp41
 70
     1
102
RTVSPost2010Prop42
 90
       50
102
RTVSPost2010PropOp42
 70
     1
102
RTVSPost2010Prop43
 90
        3
102
RTVSPost2010PropOp43
 70
     1
102
RTVSPost2010Prop44ColorIndex
 90
        5
102
RTVSPost2010Prop44ColorRGB
 90
      255
102
RTVSPost2010PropOp44
 70
     1
102
RTVSPost2010Prop45
280
     0
102
RTVSPost2010PropOp45
 70
     1
102
RTVSPost2010Prop46
 90
       50
102
RTVSPost2010PropOp46
 70
     1
102
RTVSPost2010Prop47
 90
       50
102
RTVSPost2010PropOp47
 70
     1
102
RTVSPost2010Prop48
 90
       50
102
RTVSPost2010PropOp48
 70
     1
102
RTVSPost2010Prop49
280
     0
102
RTVSPost2010PropOp49
 70
     1
102
RTVSPost2010Prop50
 90
       50
102
RTVSPost2010PropOp50
 70
     1
102
RTVSPost2010Prop51ColorIndex
 90
      256
102
RTVSPost2010Prop51ColorRGB
 90
-16777216
102
RTVSPost2010PropOp51
 70
     0
102
RTVSPost2010Prop52
140
1.0
102
RTVSPost2010PropOp52
 70
     0
102
RTVSPost2010Prop53
 90
        2
102
RTVSPost2010PropOp53
 70
     1
102
RTVSPost2010Prop54
  1
strokes_ogs.tif
102
RTVSPost2010PropOp54
 70
     1
102
RTVSPost2010Prop55
280
     0
102
RTVSPost2010PropOp55
 70
     1
102
RTVSPost2010Prop56
140
1.0
102
RTVSPost2010PropOp56
 70
     1
102
RTVSPost2010Prop57
140
1.0
102
RTVSPost2010PropOp57
 70
     1
102
RTVSPropertyOp0
 70
     1
102
RTVSPropertyOp1
 70
     1
102
RTVSPropertyOp2
 70
     1
102
RTVSPropertyOp3
 70
     1
102
RTVSPropertyOp4
 70
     1
102
RTVSPropertyOp5
 70
     1
102
RTVSPropertyOp6
 70
     1
102
RTVSPropertyOp7
 70
     1
102
RTVSPropertyOp8
 70
     1
102
RTVSPropertyOp9
 70
     1
102
RTVSPropertyOp10
 70
     1
102
RTVSPropertyOp11
 70
     1
102
RTVSPropertyOp12
 70
     1
102
RTVSPropertyOp13
 70
     1
102
RTVSPropertyOp14
 70
     1
102
RTVSPropertyOp15
 70
     1
102
RTVSPropertyOp16
 70
     1
102
RTVSPropertyOp17
 70
     1
102
RTVSPropertyOp18
 70
     1
102
RTVSPropertyOp19
 70
     1
102
RTVSPropertyOp20
 70
     1
102
RTVSPropertyOp21
 70
     1
102
RTVSPropertyOp22
 70
     1
102
RTVSPropertyOp23
 70
     1
102
RTVSPropertyOp24
 70
     1
102
RTVSPropertyOp25
 70
     1
102
RTVSPropertyOp26
 70
     1
102
RTVSPropertyOp27
 70
     1
102
RTVSPropertyOp28
 70
     1
102
RTVSPropertyOp29
 70
     1
102
RTVSPropertyOp30
 70
     1
102
RTVSPropertyOp31
 70
     1
102
RTVSPropertyOp32
 70
     1
102
RTVSPropertyOp33
 70
     1
102
RTVSPropertyOp34
 70
     1
102
RTVSPropertyOp35
 70
     1
102
RTVSPropertyOp36
 70
     1
102
RTVSPropertyOp37
 70
     1
102
RTVSPropertyOp38
 70
     1
102
RTVSPropertyOp39
 70
     1
102
RTVSPropertyOp40
 70
     1
102
RTVSPropertyOp41
 70
     1
102
RTVSPropertyOp42
 70
     1
102
RTVSPropertyOp43
 70
     1
102
RTVSPropertyOp44
 70
     1
102
RTVSPropertyOp45
 70
     1
102
RTVSPropertyOp46
 70
     1
102
RTVSPropertyOp47
 70
     1
102
RTVSPropertyOp48
 70
     1
102
RTVSPropertyOp49
 70
     1
102
RTVSPropertyOp50
 70
     1
102
RTVSPropertyOp51
 70
     0
102
RTVSPropertyOp52
 70
     0
102
RTVSPropertyOp53
 70
     1
102
RTVSPropertyOp54
 70
     1
102
RTVSPropertyOp55
 70
     1
102
RTVSPropertyOp56
 70
     1
102
RTVSPropertyOp57
 70
     1
102
RTVSPropertyOp58
 70
     1
102
RTVSPropertyOp59
 70
     1
102
RTVSPropertyOp60
 70
     1
102
RTVSPropertyOp61
 70
     1
102
RTVSPropertyOp62
 70
     1
  0
XRECORD
  5
3828
102
{ACAD_REACTORS
330
3827
102
}
330
3827
100
AcDbXrecord
280
     1
102
RTVSPost2010Prop28
280
     0
102
RTVSPost2010PropOp28
 70
     1
102
RTVSPost2010Prop29
280
     1
102
RTVSPost2010PropOp29
 70
     1
102
RTVSPost2010Prop30
280
     1
102
RTVSPost2010PropOp30
 70
     1
102
RTVSPost2010Prop31
280
     0
102
RTVSPost2010PropOp31
 70
     1
102
RTVSPost2010Prop32
280
     0
102
RTVSPost2010PropOp32
 70
     1
102
RTVSPost2010Prop33
280
     0
102
RTVSPost2010PropOp33
 70
     1
102
RTVSPost2010Prop34
280
     0
102
RTVSPost2010PropOp34
 70
     1
102
RTVSPost2010Prop35
280
     0
102
RTVSPost2010PropOp35
 70
     1
102
RTVSPost2010Prop36
280
     0
102
RTVSPost2010PropOp36
 70
     1
102
RTVSPost2010Prop37
 90
       50
102
RTVSPost2010PropOp37
 70
     1
102
RTVSPost2010Prop38
140
0.0
102
RTVSPost2010PropOp38
 70
     1
102
RTVSPost2010Prop39
140
1.0
102
RTVSPost2010PropOp39
 70
     1
102
RTVSPost2010Prop40
 90
        0
102
RTVSPost2010PropOp40
 70
     1
102
RTVSPost2010Prop41ColorIndex
 90
       18
102
RTVSPost2010Prop41ColorRGB
 90
        0
102
RTVSPost2010PropOp41
 70
     1
102
RTVSPost2010Prop42
 90
       50
102
RTVSPost2010PropOp42
 70
     1
102
RTVSPost2010Prop43
 90
        3
102
RTVSPost2010PropOp43
 70
     1
102
RTVSPost2010Prop44ColorIndex
 90
        5
102
RTVSPost2010Prop44ColorRGB
 90
      255
102
RTVSPost2010PropOp44
 70
     1
102
RTVSPost2010Prop45
280
     0
102
RTVSPost2010PropOp45
 70
     1
102
RTVSPost2010Prop46
 90
       50
102
RTVSPost2010PropOp46
 70
     1
102
RTVSPost2010Prop47
 90
       50
102
RTVSPost2010PropOp47
 70
     1
102
RTVSPost2010Prop48
 90
       50
102
RTVSPost2010PropOp48
 70
     1
102
RTVSPost2010Prop49
280
     0
102
RTVSPost2010PropOp49
 70
     1
102
RTVSPost2010Prop50
 90
       50
102
RTVSPost2010PropOp50
 70
     1
102
RTVSPost2010Prop51ColorIndex
 90
      256
102
RTVSPost2010Prop51ColorRGB
 90
-16777216
102
RTVSPost2010PropOp51
 70
     0
102
RTVSPost2010Prop52
140
1.0
102
RTVSPost2010PropOp52
 70
     0
102
RTVSPost2010Prop53
 90
        2
102
RTVSPost2010PropOp53
 70
     1
102
RTVSPost2010Prop54
  1
strokes_ogs.tif
102
RTVSPost2010PropOp54
 70
     1
102
RTVSPost2010Prop55
280
     0
102
RTVSPost2010PropOp55
 70
     1
102
RTVSPost2010Prop56
140
1.0
102
RTVSPost2010PropOp56
 70
     1
102
RTVSPost2010Prop57
140
1.0
102
RTVSPost2010PropOp57
 70
     1
102
RTVSPropertyOp0
 70
     1
102
RTVSPropertyOp1
 70
     1
102
RTVSPropertyOp2
 70
     1
102
RTVSPropertyOp3
 70
     1
102
RTVSPropertyOp4
 70
     1
102
RTVSPropertyOp5
 70
     1
102
RTVSPropertyOp6
 70
     1
102
RTVSPropertyOp7
 70
     1
102
RTVSPropertyOp8
 70
     1
102
RTVSPropertyOp9
 70
     1
102
RTVSPropertyOp10
 70
     1
102
RTVSPropertyOp11
 70
     1
102
RTVSPropertyOp12
 70
     1
102
RTVSPropertyOp13
 70
     1
102
RTVSPropertyOp14
 70
     1
102
RTVSPropertyOp15
 70
     1
102
RTVSPropertyOp16
 70
     1
102
RTVSPropertyOp17
 70
     1
102
RTVSPropertyOp18
 70
     1
102
RTVSPropertyOp19
 70
     1
102
RTVSPropertyOp20
 70
     1
102
RTVSPropertyOp21
 70
     1
102
RTVSPropertyOp22
 70
     1
102
RTVSPropertyOp23
 70
     1
102
RTVSPropertyOp24
 70
     1
102
RTVSPropertyOp25
 70
     1
102
RTVSPropertyOp26
 70
     1
102
RTVSPropertyOp27
 70
     1
102
RTVSPropertyOp28
 70
     1
102
RTVSPropertyOp29
 70
     1
102
RTVSPropertyOp30
 70
     1
102
RTVSPropertyOp31
 70
     1
102
RTVSPropertyOp32
 70
     1
102
RTVSPropertyOp33
 70
     1
102
RTVSPropertyOp34
 70
     1
102
RTVSPropertyOp35
 70
     1
102
RTVSPropertyOp36
 70
     1
102
RTVSPropertyOp37
 70
     1
102
RTVSPropertyOp38
 70
     1
102
RTVSPropertyOp39
 70
     1
102
RTVSPropertyOp40
 70
     1
102
RTVSPropertyOp41
 70
     1
102
RTVSPropertyOp42
 70
     1
102
RTVSPropertyOp43
 70
     1
102
RTVSPropertyOp44
 70
     1
102
RTVSPropertyOp45
 70
     1
102
RTVSPropertyOp46
 70
     1
102
RTVSPropertyOp47
 70
     1
102
RTVSPropertyOp48
 70
     1
102
RTVSPropertyOp49
 70
     1
102
RTVSPropertyOp50
 70
     1
102
RTVSPropertyOp51
 70
     0
102
RTVSPropertyOp52
 70
     0
102
RTVSPropertyOp53
 70
     1
102
RTVSPropertyOp54
 70
     1
102
RTVSPropertyOp55
 70
     1
102
RTVSPropertyOp56
 70
     1
102
RTVSPropertyOp57
 70
     1
102
RTVSPropertyOp58
 70
     1
102
RTVSPropertyOp59
 70
     1
102
RTVSPropertyOp60
 70
     1
102
RTVSPropertyOp61
 70
     1
102
RTVSPropertyOp62
 70
     1
  0
XRECORD
  5
3842
102
{ACAD_REACTORS
330
3841
102
}
330
3841
100
AcDbXrecord
280
     1
102
RTVSPost2010Prop28
280
     0
102
RTVSPost2010PropOp28
 70
     0
102
RTVSPost2010Prop29
280
     1
102
RTVSPost2010PropOp29
 70
     0
102
RTVSPost2010Prop30
280
     1
102
RTVSPost2010PropOp30
 70
     0
102
RTVSPost2010Prop31
280
     0
102
RTVSPost2010PropOp31
 70
     0
102
RTVSPost2010Prop32
280
     0
102
RTVSPost2010PropOp32
 70
     0
102
RTVSPost2010Prop33
280
     0
102
RTVSPost2010PropOp33
 70
     0
102
RTVSPost2010Prop34
280
     0
102
RTVSPost2010PropOp34
 70
     0
102
RTVSPost2010Prop35
280
     0
102
RTVSPost2010PropOp35
 70
     0
102
RTVSPost2010Prop36
280
     0
102
RTVSPost2010PropOp36
 70
     0
102
RTVSPost2010Prop37
 90
       50
102
RTVSPost2010PropOp37
 70
     0
102
RTVSPost2010Prop38
140
0.0
102
RTVSPost2010PropOp38
 70
     0
102
RTVSPost2010Prop39
140
1.0
102
RTVSPost2010PropOp39
 70
     0
102
RTVSPost2010Prop40
 90
        0
102
RTVSPost2010PropOp40
 70
     0
102
RTVSPost2010Prop41ColorIndex
 90
       18
102
RTVSPost2010Prop41ColorRGB
 90
        0
102
RTVSPost2010PropOp41
 70
     0
102
RTVSPost2010Prop42
 90
       50
102
RTVSPost2010PropOp42
 70
     0
102
RTVSPost2010Prop43
 90
        3
102
RTVSPost2010PropOp43
 70
     0
102
RTVSPost2010Prop44ColorIndex
 90
        5
102
RTVSPost2010Prop44ColorRGB
 90
      255
102
RTVSPost2010PropOp44
 70
     0
102
RTVSPost2010Prop45
280
     0
102
RTVSPost2010PropOp45
 70
     0
102
RTVSPost2010Prop46
 90
       50
102
RTVSPost2010PropOp46
 70
     0
102
RTVSPost2010Prop47
 90
       50
102
RTVSPost2010PropOp47
 70
     0
102
RTVSPost2010Prop48
 90
       50
102
RTVSPost2010PropOp48
 70
     0
102
RTVSPost2010Prop49
280
     0
102
RTVSPost2010PropOp49
 70
     0
102
RTVSPost2010Prop50
 90
       50
102
RTVSPost2010PropOp50
 70
     0
102
RTVSPost2010Prop51ColorIndex
 90
      256
102
RTVSPost2010Prop51ColorRGB
 90
-16777216
102
RTVSPost2010PropOp51
 70
     0
102
RTVSPost2010Prop52
140
1.0
102
RTVSPost2010PropOp52
 70
     0
102
RTVSPost2010Prop53
 90
        2
102
RTVSPost2010PropOp53
 70
     0
102
RTVSPost2010Prop54
  1
strokes_ogs.tif
102
RTVSPost2010PropOp54
 70
     0
102
RTVSPost2010Prop55
280
     0
102
RTVSPost2010PropOp55
 70
     0
102
RTVSPost2010Prop56
140
1.0
102
RTVSPost2010PropOp56
 70
     0
102
RTVSPost2010Prop57
140
1.0
102
RTVSPost2010PropOp57
 70
     0
102
RTVSPropertyOp0
 70
     0
102
RTVSPropertyOp1
 70
     0
102
RTVSPropertyOp2
 70
     0
102
RTVSPropertyOp3
 70
     0
102
RTVSPropertyOp4
 70
     0
102
RTVSPropertyOp5
 70
     0
102
RTVSPropertyOp6
 70
     0
102
RTVSPropertyOp7
 70
     0
102
RTVSPropertyOp8
 70
     0
102
RTVSPropertyOp9
 70
     0
102
RTVSPropertyOp10
 70
     0
102
RTVSPropertyOp11
 70
     0
102
RTVSPropertyOp12
 70
     0
102
RTVSPropertyOp13
 70
     0
102
RTVSPropertyOp14
 70
     2
102
RTVSPropertyOp15
 70
     0
102
RTVSPropertyOp16
 70
     0
102
RTVSPropertyOp17
 70
     0
102
RTVSPropertyOp18
 70
     0
102
RTVSPropertyOp19
 70
     0
102
RTVSPropertyOp20
 70
     0
102
RTVSPropertyOp21
 70
     0
102
RTVSPropertyOp22
 70
     0
102
RTVSPropertyOp23
 70
     0
102
RTVSPropertyOp24
 70
     0
102
RTVSPropertyOp25
 70
     0
102
RTVSPropertyOp26
 70
     0
102
RTVSPropertyOp27
 70
     0
102
RTVSPropertyOp28
 70
     0
102
RTVSPropertyOp29
 70
     0
102
RTVSPropertyOp30
 70
     0
102
RTVSPropertyOp31
 70
     0
102
RTVSPropertyOp32
 70
     0
102
RTVSPropertyOp33
 70
     0
102
RTVSPropertyOp34
 70
     0
102
RTVSPropertyOp35
 70
     0
102
RTVSPropertyOp36
 70
     0
102
RTVSPropertyOp37
 70
     0
102
RTVSPropertyOp38
 70
     0
102
RTVSPropertyOp39
 70
     0
102
RTVSPropertyOp40
 70
     0
102
RTVSPropertyOp41
 70
     0
102
RTVSPropertyOp42
 70
     0
102
RTVSPropertyOp43
 70
     0
102
RTVSPropertyOp44
 70
     0
102
RTVSPropertyOp45
 70
     0
102
RTVSPropertyOp46
 70
     0
102
RTVSPropertyOp47
 70
     0
102
RTVSPropertyOp48
 70
     0
102
RTVSPropertyOp49
 70
     0
102
RTVSPropertyOp50
 70
     0
102
RTVSPropertyOp51
 70
     0
102
RTVSPropertyOp52
 70
     0
102
RTVSPropertyOp53
 70
     0
102
RTVSPropertyOp54
 70
     0
102
RTVSPropertyOp55
 70
     0
102
RTVSPropertyOp56
 70
     0
102
RTVSPropertyOp57
 70
     0
102
RTVSPropertyOp58
 70
     1
102
RTVSPropertyOp59
 70
     1
102
RTVSPropertyOp60
 70
     1
102
RTVSPropertyOp61
 70
     1
102
RTVSPropertyOp62
 70
     1
  0
XRECORD
  5
3830
102
{ACAD_REACTORS
330
382F
102
}
330
382F
100
AcDbXrecord
280
     1
102
RTVSPost2010Prop28
280
     0
102
RTVSPost2010PropOp28
 70
     1
102
RTVSPost2010Prop29
280
     1
102
RTVSPost2010PropOp29
 70
     1
102
RTVSPost2010Prop30
280
     1
102
RTVSPost2010PropOp30
 70
     1
102
RTVSPost2010Prop31
280
     0
102
RTVSPost2010PropOp31
 70
     1
102
RTVSPost2010Prop32
280
     0
102
RTVSPost2010PropOp32
 70
     1
102
RTVSPost2010Prop33
280
     0
102
RTVSPost2010PropOp33
 70
     1
102
RTVSPost2010Prop34
280
     0
102
RTVSPost2010PropOp34
 70
     1
102
RTVSPost2010Prop35
280
     0
102
RTVSPost2010PropOp35
 70
     1
102
RTVSPost2010Prop36
280
     0
102
RTVSPost2010PropOp36
 70
     1
102
RTVSPost2010Prop37
 90
       50
102
RTVSPost2010PropOp37
 70
     1
102
RTVSPost2010Prop38
140
0.0
102
RTVSPost2010PropOp38
 70
     1
102
RTVSPost2010Prop39
140
1.0
102
RTVSPost2010PropOp39
 70
     1
102
RTVSPost2010Prop40
 90
        0
102
RTVSPost2010PropOp40
 70
     1
102
RTVSPost2010Prop41ColorIndex
 90
       18
102
RTVSPost2010Prop41ColorRGB
 90
        0
102
RTVSPost2010PropOp41
 70
     1
102
RTVSPost2010Prop42
 90
       50
102
RTVSPost2010PropOp42
 70
     1
102
RTVSPost2010Prop43
 90
        3
102
RTVSPost2010PropOp43
 70
     1
102
RTVSPost2010Prop44ColorIndex
 90
        5
102
RTVSPost2010Prop44ColorRGB
 90
      255
102
RTVSPost2010PropOp44
 70
     1
102
RTVSPost2010Prop45
280
     0
102
RTVSPost2010PropOp45
 70
     1
102
RTVSPost2010Prop46
 90
       50
102
RTVSPost2010PropOp46
 70
     1
102
RTVSPost2010Prop47
 90
       50
102
RTVSPost2010PropOp47
 70
     1
102
RTVSPost2010Prop48
 90
       50
102
RTVSPost2010PropOp48
 70
     1
102
RTVSPost2010Prop49
280
     0
102
RTVSPost2010PropOp49
 70
     1
102
RTVSPost2010Prop50
 90
       50
102
RTVSPost2010PropOp50
 70
     1
102
RTVSPost2010Prop51ColorIndex
 90
      256
102
RTVSPost2010Prop51ColorRGB
 90
-16777216
102
RTVSPost2010PropOp51
 70
     0
102
RTVSPost2010Prop52
140
1.0
102
RTVSPost2010PropOp52
 70
     0
102
RTVSPost2010Prop53
 90
        2
102
RTVSPost2010PropOp53
 70
     1
102
RTVSPost2010Prop54
  1
strokes_ogs.tif
102
RTVSPost2010PropOp54
 70
     1
102
RTVSPost2010Prop55
280
     0
102
RTVSPost2010PropOp55
 70
     1
102
RTVSPost2010Prop56
140
1.0
102
RTVSPost2010PropOp56
 70
     1
102
RTVSPost2010Prop57
140
1.0
102
RTVSPost2010PropOp57
 70
     1
102
RTVSPropertyOp0
 70
     1
102
RTVSPropertyOp1
 70
     1
102
RTVSPropertyOp2
 70
     1
102
RTVSPropertyOp3
 70
     1
102
RTVSPropertyOp4
 70
     1
102
RTVSPropertyOp5
 70
     1
102
RTVSPropertyOp6
 70
     1
102
RTVSPropertyOp7
 70
     1
102
RTVSPropertyOp8
 70
     1
102
RTVSPropertyOp9
 70
     1
102
RTVSPropertyOp10
 70
     1
102
RTVSPropertyOp11
 70
     1
102
RTVSPropertyOp12
 70
     1
102
RTVSPropertyOp13
 70
     1
102
RTVSPropertyOp14
 70
     1
102
RTVSPropertyOp15
 70
     1
102
RTVSPropertyOp16
 70
     1
102
RTVSPropertyOp17
 70
     1
102
RTVSPropertyOp18
 70
     1
102
RTVSPropertyOp19
 70
     1
102
RTVSPropertyOp20
 70
     1
102
RTVSPropertyOp21
 70
     1
102
RTVSPropertyOp22
 70
     1
102
RTVSPropertyOp23
 70
     1
102
RTVSPropertyOp24
 70
     1
102
RTVSPropertyOp25
 70
     1
102
RTVSPropertyOp26
 70
     1
102
RTVSPropertyOp27
 70
     1
102
RTVSPropertyOp28
 70
     1
102
RTVSPropertyOp29
 70
     1
102
RTVSPropertyOp30
 70
     1
102
RTVSPropertyOp31
 70
     1
102
RTVSPropertyOp32
 70
     1
102
RTVSPropertyOp33
 70
     1
102
RTVSPropertyOp34
 70
     1
102
RTVSPropertyOp35
 70
     1
102
RTVSPropertyOp36
 70
     1
102
RTVSPropertyOp37
 70
     1
102
RTVSPropertyOp38
 70
     1
102
RTVSPropertyOp39
 70
     1
102
RTVSPropertyOp40
 70
     1
102
RTVSPropertyOp41
 70
     1
102
RTVSPropertyOp42
 70
     1
102
RTVSPropertyOp43
 70
     1
102
RTVSPropertyOp44
 70
     1
102
RTVSPropertyOp45
 70
     1
102
RTVSPropertyOp46
 70
     1
102
RTVSPropertyOp47
 70
     1
102
RTVSPropertyOp48
 70
     1
102
RTVSPropertyOp49
 70
     1
102
RTVSPropertyOp50
 70
     1
102
RTVSPropertyOp51
 70
     0
102
RTVSPropertyOp52
 70
     0
102
RTVSPropertyOp53
 70
     1
102
RTVSPropertyOp54
 70
     1
102
RTVSPropertyOp55
 70
     1
102
RTVSPropertyOp56
 70
     1
102
RTVSPropertyOp57
 70
     1
102
RTVSPropertyOp58
 70
     1
102
RTVSPropertyOp59
 70
     1
102
RTVSPropertyOp60
 70
     1
102
RTVSPropertyOp61
 70
     1
102
RTVSPropertyOp62
 70
     1
  0
XRECORD
  5
3814
102
{ACAD_REACTORS
330
3813
102
}
330
3813
100
AcDbXrecord
280
     1
102
RTVSPost2010Prop28
280
     0
102
RTVSPost2010PropOp28
 70
     1
102
RTVSPost2010Prop29
280
     1
102
RTVSPost2010PropOp29
 70
     1
102
RTVSPost2010Prop30
280
     1
102
RTVSPost2010PropOp30
 70
     1
102
RTVSPost2010Prop31
280
     0
102
RTVSPost2010PropOp31
 70
     1
102
RTVSPost2010Prop32
280
     0
102
RTVSPost2010PropOp32
 70
     1
102
RTVSPost2010Prop33
280
     0
102
RTVSPost2010PropOp33
 70
     1
102
RTVSPost2010Prop34
280
     0
102
RTVSPost2010PropOp34
 70
     1
102
RTVSPost2010Prop35
280
     0
102
RTVSPost2010PropOp35
 70
     1
102
RTVSPost2010Prop36
280
     0
102
RTVSPost2010PropOp36
 70
     1
102
RTVSPost2010Prop37
 90
       50
102
RTVSPost2010PropOp37
 70
     1
102
RTVSPost2010Prop38
140
0.0
102
RTVSPost2010PropOp38
 70
     1
102
RTVSPost2010Prop39
140
1.0
102
RTVSPost2010PropOp39
 70
     1
102
RTVSPost2010Prop40
 90
        0
102
RTVSPost2010PropOp40
 70
     1
102
RTVSPost2010Prop41ColorIndex
 90
       18
102
RTVSPost2010Prop41ColorRGB
 90
        0
102
RTVSPost2010PropOp41
 70
     1
102
RTVSPost2010Prop42
 90
       50
102
RTVSPost2010PropOp42
 70
     1
102
RTVSPost2010Prop43
 90
        3
102
RTVSPost2010PropOp43
 70
     1
102
RTVSPost2010Prop44ColorIndex
 90
        5
102
RTVSPost2010Prop44ColorRGB
 90
      255
102
RTVSPost2010PropOp44
 70
     1
102
RTVSPost2010Prop45
280
     0
102
RTVSPost2010PropOp45
 70
     1
102
RTVSPost2010Prop46
 90
       50
102
RTVSPost2010PropOp46
 70
     1
102
RTVSPost2010Prop47
 90
       50
102
RTVSPost2010PropOp47
 70
     1
102
RTVSPost2010Prop48
 90
       50
102
RTVSPost2010PropOp48
 70
     1
102
RTVSPost2010Prop49
280
     0
102
RTVSPost2010PropOp49
 70
     1
102
RTVSPost2010Prop50
 90
       50
102
RTVSPost2010PropOp50
 70
     1
102
RTVSPost2010Prop51ColorIndex
 90
      256
102
RTVSPost2010Prop51ColorRGB
 90
-16777216
102
RTVSPost2010PropOp51
 70
     0
102
RTVSPost2010Prop52
140
1.0
102
RTVSPost2010PropOp52
 70
     0
102
RTVSPost2010Prop53
 90
        2
102
RTVSPost2010PropOp53
 70
     1
102
RTVSPost2010Prop54
  1
strokes_ogs.tif
102
RTVSPost2010PropOp54
 70
     1
102
RTVSPost2010Prop55
280
     0
102
RTVSPost2010PropOp55
 70
     1
102
RTVSPost2010Prop56
140
1.0
102
RTVSPost2010PropOp56
 70
     1
102
RTVSPost2010Prop57
140
1.0
102
RTVSPost2010PropOp57
 70
     1
102
RTVSPropertyOp0
 70
     1
102
RTVSPropertyOp1
 70
     1
102
RTVSPropertyOp2
 70
     1
102
RTVSPropertyOp3
 70
     1
102
RTVSPropertyOp4
 70
     1
102
RTVSPropertyOp5
 70
     1
102
RTVSPropertyOp6
 70
     1
102
RTVSPropertyOp7
 70
     1
102
RTVSPropertyOp8
 70
     1
102
RTVSPropertyOp9
 70
     1
102
RTVSPropertyOp10
 70
     1
102
RTVSPropertyOp11
 70
     1
102
RTVSPropertyOp12
 70
     1
102
RTVSPropertyOp13
 70
     1
102
RTVSPropertyOp14
 70
     1
102
RTVSPropertyOp15
 70
     1
102
RTVSPropertyOp16
 70
     1
102
RTVSPropertyOp17
 70
     1
102
RTVSPropertyOp18
 70
     1
102
RTVSPropertyOp19
 70
     1
102
RTVSPropertyOp20
 70
     1
102
RTVSPropertyOp21
 70
     1
102
RTVSPropertyOp22
 70
     1
102
RTVSPropertyOp23
 70
     1
102
RTVSPropertyOp24
 70
     1
102
RTVSPropertyOp25
 70
     1
102
RTVSPropertyOp26
 70
     1
102
RTVSPropertyOp27
 70
     1
102
RTVSPropertyOp28
 70
     1
102
RTVSPropertyOp29
 70
     1
102
RTVSPropertyOp30
 70
     1
102
RTVSPropertyOp31
 70
     1
102
RTVSPropertyOp32
 70
     1
102
RTVSPropertyOp33
 70
     1
102
RTVSPropertyOp34
 70
     1
102
RTVSPropertyOp35
 70
     1
102
RTVSPropertyOp36
 70
     1
102
RTVSPropertyOp37
 70
     1
102
RTVSPropertyOp38
 70
     1
102
RTVSPropertyOp39
 70
     1
102
RTVSPropertyOp40
 70
     1
102
RTVSPropertyOp41
 70
     1
102
RTVSPropertyOp42
 70
     1
102
RTVSPropertyOp43
 70
     1
102
RTVSPropertyOp44
 70
     1
102
RTVSPropertyOp45
 70
     1
102
RTVSPropertyOp46
 70
     1
102
RTVSPropertyOp47
 70
     1
102
RTVSPropertyOp48
 70
     1
102
RTVSPropertyOp49
 70
     1
102
RTVSPropertyOp50
 70
     1
102
RTVSPropertyOp51
 70
     0
102
RTVSPropertyOp52
 70
     0
102
RTVSPropertyOp53
 70
     1
102
RTVSPropertyOp54
 70
     1
102
RTVSPropertyOp55
 70
     1
102
RTVSPropertyOp56
 70
     1
102
RTVSPropertyOp57
 70
     1
102
RTVSPropertyOp58
 70
     1
102
RTVSPropertyOp59
 70
     1
102
RTVSPropertyOp60
 70
     1
102
RTVSPropertyOp61
 70
     1
102
RTVSPropertyOp62
 70
     1
  0
XRECORD
  5
3816
102
{ACAD_REACTORS
330
3815
102
}
330
3815
100
AcDbXrecord
280
     1
102
RTVSPost2010Prop28
280
     0
102
RTVSPost2010PropOp28
 70
     1
102
RTVSPost2010Prop29
280
     1
102
RTVSPost2010PropOp29
 70
     1
102
RTVSPost2010Prop30
280
     1
102
RTVSPost2010PropOp30
 70
     1
102
RTVSPost2010Prop31
280
     0
102
RTVSPost2010PropOp31
 70
     1
102
RTVSPost2010Prop32
280
     0
102
RTVSPost2010PropOp32
 70
     1
102
RTVSPost2010Prop33
280
     0
102
RTVSPost2010PropOp33
 70
     1
102
RTVSPost2010Prop34
280
     0
102
RTVSPost2010PropOp34
 70
     1
102
RTVSPost2010Prop35
280
     0
102
RTVSPost2010PropOp35
 70
     1
102
RTVSPost2010Prop36
280
     0
102
RTVSPost2010PropOp36
 70
     1
102
RTVSPost2010Prop37
 90
       50
102
RTVSPost2010PropOp37
 70
     1
102
RTVSPost2010Prop38
140
0.0
102
RTVSPost2010PropOp38
 70
     1
102
RTVSPost2010Prop39
140
1.0
102
RTVSPost2010PropOp39
 70
     1
102
RTVSPost2010Prop40
 90
        0
102
RTVSPost2010PropOp40
 70
     1
102
RTVSPost2010Prop41ColorIndex
 90
       18
102
RTVSPost2010Prop41ColorRGB
 90
        0
102
RTVSPost2010PropOp41
 70
     1
102
RTVSPost2010Prop42
 90
       50
102
RTVSPost2010PropOp42
 70
     1
102
RTVSPost2010Prop43
 90
        3
102
RTVSPost2010PropOp43
 70
     1
102
RTVSPost2010Prop44ColorIndex
 90
        5
102
RTVSPost2010Prop44ColorRGB
 90
      255
102
RTVSPost2010PropOp44
 70
     1
102
RTVSPost2010Prop45
280
     0
102
RTVSPost2010PropOp45
 70
     1
102
RTVSPost2010Prop46
 90
       50
102
RTVSPost2010PropOp46
 70
     1
102
RTVSPost2010Prop47
 90
       50
102
RTVSPost2010PropOp47
 70
     1
102
RTVSPost2010Prop48
 90
       50
102
RTVSPost2010PropOp48
 70
     1
102
RTVSPost2010Prop49
280
     0
102
RTVSPost2010PropOp49
 70
     1
102
RTVSPost2010Prop50
 90
       50
102
RTVSPost2010PropOp50
 70
     1
102
RTVSPost2010Prop51ColorIndex
 90
      256
102
RTVSPost2010Prop51ColorRGB
 90
-16777216
102
RTVSPost2010PropOp51
 70
     0
102
RTVSPost2010Prop52
140
1.0
102
RTVSPost2010PropOp52
 70
     0
102
RTVSPost2010Prop53
 90
        2
102
RTVSPost2010PropOp53
 70
     1
102
RTVSPost2010Prop54
  1
strokes_ogs.tif
102
RTVSPost2010PropOp54
 70
     1
102
RTVSPost2010Prop55
280
     0
102
RTVSPost2010PropOp55
 70
     1
102
RTVSPost2010Prop56
140
1.0
102
RTVSPost2010PropOp56
 70
     1
102
RTVSPost2010Prop57
140
1.0
102
RTVSPost2010PropOp57
 70
     1
102
RTVSPropertyOp0
 70
     1
102
RTVSPropertyOp1
 70
     1
102
RTVSPropertyOp2
 70
     1
102
RTVSPropertyOp3
 70
     1
102
RTVSPropertyOp4
 70
     1
102
RTVSPropertyOp5
 70
     1
102
RTVSPropertyOp6
 70
     1
102
RTVSPropertyOp7
 70
     1
102
RTVSPropertyOp8
 70
     1
102
RTVSPropertyOp9
 70
     1
102
RTVSPropertyOp10
 70
     1
102
RTVSPropertyOp11
 70
     1
102
RTVSPropertyOp12
 70
     1
102
RTVSPropertyOp13
 70
     1
102
RTVSPropertyOp14
 70
     1
102
RTVSPropertyOp15
 70
     1
102
RTVSPropertyOp16
 70
     1
102
RTVSPropertyOp17
 70
     1
102
RTVSPropertyOp18
 70
     1
102
RTVSPropertyOp19
 70
     1
102
RTVSPropertyOp20
 70
     1
102
RTVSPropertyOp21
 70
     1
102
RTVSPropertyOp22
 70
     1
102
RTVSPropertyOp23
 70
     1
102
RTVSPropertyOp24
 70
     1
102
RTVSPropertyOp25
 70
     1
102
RTVSPropertyOp26
 70
     1
102
RTVSPropertyOp27
 70
     1
102
RTVSPropertyOp28
 70
     1
102
RTVSPropertyOp29
 70
     1
102
RTVSPropertyOp30
 70
     1
102
RTVSPropertyOp31
 70
     1
102
RTVSPropertyOp32
 70
     1
102
RTVSPropertyOp33
 70
     1
102
RTVSPropertyOp34
 70
     1
102
RTVSPropertyOp35
 70
     1
102
RTVSPropertyOp36
 70
     1
102
RTVSPropertyOp37
 70
     1
102
RTVSPropertyOp38
 70
     1
102
RTVSPropertyOp39
 70
     1
102
RTVSPropertyOp40
 70
     1
102
RTVSPropertyOp41
 70
     1
102
RTVSPropertyOp42
 70
     1
102
RTVSPropertyOp43
 70
     1
102
RTVSPropertyOp44
 70
     1
102
RTVSPropertyOp45
 70
     1
102
RTVSPropertyOp46
 70
     1
102
RTVSPropertyOp47
 70
     1
102
RTVSPropertyOp48
 70
     1
102
RTVSPropertyOp49
 70
     1
102
RTVSPropertyOp50
 70
     1
102
RTVSPropertyOp51
 70
     0
102
RTVSPropertyOp52
 70
     0
102
RTVSPropertyOp53
 70
     1
102
RTVSPropertyOp54
 70
     1
102
RTVSPropertyOp55
 70
     1
102
RTVSPropertyOp56
 70
     1
102
RTVSPropertyOp57
 70
     1
102
RTVSPropertyOp58
 70
     1
102
RTVSPropertyOp59
 70
     1
102
RTVSPropertyOp60
 70
     1
102
RTVSPropertyOp61
 70
     1
102
RTVSPropertyOp62
 70
     1
  0
XRECORD
  5
3818
102
{ACAD_REACTORS
330
3817
102
}
330
3817
100
AcDbXrecord
280
     1
102
RTVSPost2010Prop28
280
     0
102
RTVSPost2010PropOp28
 70
     1
102
RTVSPost2010Prop29
280
     1
102
RTVSPost2010PropOp29
 70
     1
102
RTVSPost2010Prop30
280
     1
102
RTVSPost2010PropOp30
 70
     1
102
RTVSPost2010Prop31
280
     0
102
RTVSPost2010PropOp31
 70
     1
102
RTVSPost2010Prop32
280
     0
102
RTVSPost2010PropOp32
 70
     1
102
RTVSPost2010Prop33
280
     0
102
RTVSPost2010PropOp33
 70
     1
102
RTVSPost2010Prop34
280
     0
102
RTVSPost2010PropOp34
 70
     1
102
RTVSPost2010Prop35
280
     0
102
RTVSPost2010PropOp35
 70
     1
102
RTVSPost2010Prop36
280
     0
102
RTVSPost2010PropOp36
 70
     1
102
RTVSPost2010Prop37
 90
       50
102
RTVSPost2010PropOp37
 70
     1
102
RTVSPost2010Prop38
140
0.0
102
RTVSPost2010PropOp38
 70
     1
102
RTVSPost2010Prop39
140
1.0
102
RTVSPost2010PropOp39
 70
     1
102
RTVSPost2010Prop40
 90
        0
102
RTVSPost2010PropOp40
 70
     1
102
RTVSPost2010Prop41ColorIndex
 90
       18
102
RTVSPost2010Prop41ColorRGB
 90
        0
102
RTVSPost2010PropOp41
 70
     1
102
RTVSPost2010Prop42
 90
       50
102
RTVSPost2010PropOp42
 70
     1
102
RTVSPost2010Prop43
 90
        3
102
RTVSPost2010PropOp43
 70
     1
102
RTVSPost2010Prop44ColorIndex
 90
        5
102
RTVSPost2010Prop44ColorRGB
 90
      255
102
RTVSPost2010PropOp44
 70
     1
102
RTVSPost2010Prop45
280
     0
102
RTVSPost2010PropOp45
 70
     1
102
RTVSPost2010Prop46
 90
       50
102
RTVSPost2010PropOp46
 70
     1
102
RTVSPost2010Prop47
 90
       50
102
RTVSPost2010PropOp47
 70
     1
102
RTVSPost2010Prop48
 90
       50
102
RTVSPost2010PropOp48
 70
     1
102
RTVSPost2010Prop49
280
     0
102
RTVSPost2010PropOp49
 70
     1
102
RTVSPost2010Prop50
 90
       50
102
RTVSPost2010PropOp50
 70
     1
102
RTVSPost2010Prop51ColorIndex
 90
      256
102
RTVSPost2010Prop51ColorRGB
 90
-16777216
102
RTVSPost2010PropOp51
 70
     0
102
RTVSPost2010Prop52
140
1.0
102
RTVSPost2010PropOp52
 70
     0
102
RTVSPost2010Prop53
 90
        2
102
RTVSPost2010PropOp53
 70
     1
102
RTVSPost2010Prop54
  1
strokes_ogs.tif
102
RTVSPost2010PropOp54
 70
     1
102
RTVSPost2010Prop55
280
     0
102
RTVSPost2010PropOp55
 70
     1
102
RTVSPost2010Prop56
140
1.0
102
RTVSPost2010PropOp56
 70
     1
102
RTVSPost2010Prop57
140
1.0
102
RTVSPost2010PropOp57
 70
     1
102
RTVSPropertyOp0
 70
     1
102
RTVSPropertyOp1
 70
     1
102
RTVSPropertyOp2
 70
     1
102
RTVSPropertyOp3
 70
     1
102
RTVSPropertyOp4
 70
     1
102
RTVSPropertyOp5
 70
     1
102
RTVSPropertyOp6
 70
     1
102
RTVSPropertyOp7
 70
     1
102
RTVSPropertyOp8
 70
     1
102
RTVSPropertyOp9
 70
     1
102
RTVSPropertyOp10
 70
     1
102
RTVSPropertyOp11
 70
     1
102
RTVSPropertyOp12
 70
     1
102
RTVSPropertyOp13
 70
     1
102
RTVSPropertyOp14
 70
     1
102
RTVSPropertyOp15
 70
     1
102
RTVSPropertyOp16
 70
     1
102
RTVSPropertyOp17
 70
     1
102
RTVSPropertyOp18
 70
     1
102
RTVSPropertyOp19
 70
     1
102
RTVSPropertyOp20
 70
     1
102
RTVSPropertyOp21
 70
     1
102
RTVSPropertyOp22
 70
     1
102
RTVSPropertyOp23
 70
     1
102
RTVSPropertyOp24
 70
     1
102
RTVSPropertyOp25
 70
     1
102
RTVSPropertyOp26
 70
     1
102
RTVSPropertyOp27
 70
     1
102
RTVSPropertyOp28
 70
     1
102
RTVSPropertyOp29
 70
     1
102
RTVSPropertyOp30
 70
     1
102
RTVSPropertyOp31
 70
     1
102
RTVSPropertyOp32
 70
     1
102
RTVSPropertyOp33
 70
     1
102
RTVSPropertyOp34
 70
     1
102
RTVSPropertyOp35
 70
     1
102
RTVSPropertyOp36
 70
     1
102
RTVSPropertyOp37
 70
     1
102
RTVSPropertyOp38
 70
     1
102
RTVSPropertyOp39
 70
     1
102
RTVSPropertyOp40
 70
     1
102
RTVSPropertyOp41
 70
     1
102
RTVSPropertyOp42
 70
     1
102
RTVSPropertyOp43
 70
     1
102
RTVSPropertyOp44
 70
     1
102
RTVSPropertyOp45
 70
     1
102
RTVSPropertyOp46
 70
     1
102
RTVSPropertyOp47
 70
     1
102
RTVSPropertyOp48
 70
     1
102
RTVSPropertyOp49
 70
     1
102
RTVSPropertyOp50
 70
     1
102
RTVSPropertyOp51
 70
     0
102
RTVSPropertyOp52
 70
     0
102
RTVSPropertyOp53
 70
     1
102
RTVSPropertyOp54
 70
     1
102
RTVSPropertyOp55
 70
     1
102
RTVSPropertyOp56
 70
     1
102
RTVSPropertyOp57
 70
     1
102
RTVSPropertyOp58
 70
     1
102
RTVSPropertyOp59
 70
     1
102
RTVSPropertyOp60
 70
     1
102
RTVSPropertyOp61
 70
     1
102
RTVSPropertyOp62
 70
     1
  0
XRECORD
  5
381A
102
{ACAD_REACTORS
330
3819
102
}
330
3819
100
AcDbXrecord
280
     1
102
RTVSPost2010Prop28
280
     0
102
RTVSPost2010PropOp28
 70
     1
102
RTVSPost2010Prop29
280
     1
102
RTVSPost2010PropOp29
 70
     1
102
RTVSPost2010Prop30
280
     1
102
RTVSPost2010PropOp30
 70
     1
102
RTVSPost2010Prop31
280
     0
102
RTVSPost2010PropOp31
 70
     1
102
RTVSPost2010Prop32
280
     0
102
RTVSPost2010PropOp32
 70
     1
102
RTVSPost2010Prop33
280
     0
102
RTVSPost2010PropOp33
 70
     1
102
RTVSPost2010Prop34
280
     0
102
RTVSPost2010PropOp34
 70
     1
102
RTVSPost2010Prop35
280
     0
102
RTVSPost2010PropOp35
 70
     1
102
RTVSPost2010Prop36
280
     0
102
RTVSPost2010PropOp36
 70
     1
102
RTVSPost2010Prop37
 90
       50
102
RTVSPost2010PropOp37
 70
     1
102
RTVSPost2010Prop38
140
0.0
102
RTVSPost2010PropOp38
 70
     1
102
RTVSPost2010Prop39
140
1.0
102
RTVSPost2010PropOp39
 70
     1
102
RTVSPost2010Prop40
 90
        0
102
RTVSPost2010PropOp40
 70
     1
102
RTVSPost2010Prop41ColorIndex
 90
       18
102
RTVSPost2010Prop41ColorRGB
 90
        0
102
RTVSPost2010PropOp41
 70
     1
102
RTVSPost2010Prop42
 90
       50
102
RTVSPost2010PropOp42
 70
     1
102
RTVSPost2010Prop43
 90
        3
102
RTVSPost2010PropOp43
 70
     1
102
RTVSPost2010Prop44ColorIndex
 90
        5
102
RTVSPost2010Prop44ColorRGB
 90
      255
102
RTVSPost2010PropOp44
 70
     1
102
RTVSPost2010Prop45
280
     0
102
RTVSPost2010PropOp45
 70
     1
102
RTVSPost2010Prop46
 90
       50
102
RTVSPost2010PropOp46
 70
     1
102
RTVSPost2010Prop47
 90
       50
102
RTVSPost2010PropOp47
 70
     1
102
RTVSPost2010Prop48
 90
       50
102
RTVSPost2010PropOp48
 70
     1
102
RTVSPost2010Prop49
280
     0
102
RTVSPost2010PropOp49
 70
     1
102
RTVSPost2010Prop50
 90
       50
102
RTVSPost2010PropOp50
 70
     1
102
RTVSPost2010Prop51ColorIndex
 90
      256
102
RTVSPost2010Prop51ColorRGB
 90
-16777216
102
RTVSPost2010PropOp51
 70
     0
102
RTVSPost2010Prop52
140
1.0
102
RTVSPost2010PropOp52
 70
     0
102
RTVSPost2010Prop53
 90
        2
102
RTVSPost2010PropOp53
 70
     1
102
RTVSPost2010Prop54
  1
strokes_ogs.tif
102
RTVSPost2010PropOp54
 70
     1
102
RTVSPost2010Prop55
280
     0
102
RTVSPost2010PropOp55
 70
     1
102
RTVSPost2010Prop56
140
1.0
102
RTVSPost2010PropOp56
 70
     1
102
RTVSPost2010Prop57
140
1.0
102
RTVSPost2010PropOp57
 70
     1
102
RTVSPropertyOp0
 70
     1
102
RTVSPropertyOp1
 70
     1
102
RTVSPropertyOp2
 70
     1
102
RTVSPropertyOp3
 70
     1
102
RTVSPropertyOp4
 70
     1
102
RTVSPropertyOp5
 70
     1
102
RTVSPropertyOp6
 70
     1
102
RTVSPropertyOp7
 70
     1
102
RTVSPropertyOp8
 70
     1
102
RTVSPropertyOp9
 70
     1
102
RTVSPropertyOp10
 70
     1
102
RTVSPropertyOp11
 70
     1
102
RTVSPropertyOp12
 70
     1
102
RTVSPropertyOp13
 70
     1
102
RTVSPropertyOp14
 70
     1
102
RTVSPropertyOp15
 70
     1
102
RTVSPropertyOp16
 70
     1
102
RTVSPropertyOp17
 70
     1
102
RTVSPropertyOp18
 70
     1
102
RTVSPropertyOp19
 70
     1
102
RTVSPropertyOp20
 70
     1
102
RTVSPropertyOp21
 70
     1
102
RTVSPropertyOp22
 70
     1
102
RTVSPropertyOp23
 70
     1
102
RTVSPropertyOp24
 70
     1
102
RTVSPropertyOp25
 70
     1
102
RTVSPropertyOp26
 70
     1
102
RTVSPropertyOp27
 70
     1
102
RTVSPropertyOp28
 70
     1
102
RTVSPropertyOp29
 70
     1
102
RTVSPropertyOp30
 70
     1
102
RTVSPropertyOp31
 70
     1
102
RTVSPropertyOp32
 70
     1
102
RTVSPropertyOp33
 70
     1
102
RTVSPropertyOp34
 70
     1
102
RTVSPropertyOp35
 70
     1
102
RTVSPropertyOp36
 70
     1
102
RTVSPropertyOp37
 70
     1
102
RTVSPropertyOp38
 70
     1
102
RTVSPropertyOp39
 70
     1
102
RTVSPropertyOp40
 70
     1
102
RTVSPropertyOp41
 70
     1
102
RTVSPropertyOp42
 70
     1
102
RTVSPropertyOp43
 70
     1
102
RTVSPropertyOp44
 70
     1
102
RTVSPropertyOp45
 70
     1
102
RTVSPropertyOp46
 70
     1
102
RTVSPropertyOp47
 70
     1
102
RTVSPropertyOp48
 70
     1
102
RTVSPropertyOp49
 70
     1
102
RTVSPropertyOp50
 70
     1
102
RTVSPropertyOp51
 70
     0
102
RTVSPropertyOp52
 70
     0
102
RTVSPropertyOp53
 70
     1
102
RTVSPropertyOp54
 70
     1
102
RTVSPropertyOp55
 70
     1
102
RTVSPropertyOp56
 70
     1
102
RTVSPropertyOp57
 70
     1
102
RTVSPropertyOp58
 70
     1
102
RTVSPropertyOp59
 70
     1
102
RTVSPropertyOp60
 70
     1
102
RTVSPropertyOp61
 70
     1
102
RTVSPropertyOp62
 70
     1
  0
XRECORD
  5
3822
102
{ACAD_REACTORS
330
3821
102
}
330
3821
100
AcDbXrecord
280
     1
102
RTVSPost2010Prop28
280
     0
102
RTVSPost2010PropOp28
 70
     1
102
RTVSPost2010Prop29
280
     1
102
RTVSPost2010PropOp29
 70
     1
102
RTVSPost2010Prop30
280
     1
102
RTVSPost2010PropOp30
 70
     1
102
RTVSPost2010Prop31
280
     0
102
RTVSPost2010PropOp31
 70
     1
102
RTVSPost2010Prop32
280
     0
102
RTVSPost2010PropOp32
 70
     1
102
RTVSPost2010Prop33
280
     0
102
RTVSPost2010PropOp33
 70
     1
102
RTVSPost2010Prop34
280
     0
102
RTVSPost2010PropOp34
 70
     1
102
RTVSPost2010Prop35
280
     0
102
RTVSPost2010PropOp35
 70
     1
102
RTVSPost2010Prop36
280
     0
102
RTVSPost2010PropOp36
 70
     1
102
RTVSPost2010Prop37
 90
       50
102
RTVSPost2010PropOp37
 70
     1
102
RTVSPost2010Prop38
140
0.0
102
RTVSPost2010PropOp38
 70
     1
102
RTVSPost2010Prop39
140
1.0
102
RTVSPost2010PropOp39
 70
     1
102
RTVSPost2010Prop40
 90
        0
102
RTVSPost2010PropOp40
 70
     1
102
RTVSPost2010Prop41ColorIndex
 90
       18
102
RTVSPost2010Prop41ColorRGB
 90
        0
102
RTVSPost2010PropOp41
 70
     1
102
RTVSPost2010Prop42
 90
       50
102
RTVSPost2010PropOp42
 70
     1
102
RTVSPost2010Prop43
 90
        3
102
RTVSPost2010PropOp43
 70
     1
102
RTVSPost2010Prop44ColorIndex
 90
        5
102
RTVSPost2010Prop44ColorRGB
 90
      255
102
RTVSPost2010PropOp44
 70
     1
102
RTVSPost2010Prop45
280
     0
102
RTVSPost2010PropOp45
 70
     1
102
RTVSPost2010Prop46
 90
       50
102
RTVSPost2010PropOp46
 70
     1
102
RTVSPost2010Prop47
 90
       50
102
RTVSPost2010PropOp47
 70
     1
102
RTVSPost2010Prop48
 90
       50
102
RTVSPost2010PropOp48
 70
     1
102
RTVSPost2010Prop49
280
     0
102
RTVSPost2010PropOp49
 70
     1
102
RTVSPost2010Prop50
 90
       50
102
RTVSPost2010PropOp50
 70
     1
102
RTVSPost2010Prop51ColorIndex
 90
      256
102
RTVSPost2010Prop51ColorRGB
 90
-16777216
102
RTVSPost2010PropOp51
 70
     0
102
RTVSPost2010Prop52
140
1.0
102
RTVSPost2010PropOp52
 70
     0
102
RTVSPost2010Prop53
 90
        2
102
RTVSPost2010PropOp53
 70
     1
102
RTVSPost2010Prop54
  1
strokes_ogs.tif
102
RTVSPost2010PropOp54
 70
     1
102
RTVSPost2010Prop55
280
     0
102
RTVSPost2010PropOp55
 70
     1
102
RTVSPost2010Prop56
140
1.0
102
RTVSPost2010PropOp56
 70
     1
102
RTVSPost2010Prop57
140
1.0
102
RTVSPost2010PropOp57
 70
     1
102
RTVSPropertyOp0
 70
     1
102
RTVSPropertyOp1
 70
     1
102
RTVSPropertyOp2
 70
     1
102
RTVSPropertyOp3
 70
     1
102
RTVSPropertyOp4
 70
     1
102
RTVSPropertyOp5
 70
     1
102
RTVSPropertyOp6
 70
     1
102
RTVSPropertyOp7
 70
     1
102
RTVSPropertyOp8
 70
     1
102
RTVSPropertyOp9
 70
     1
102
RTVSPropertyOp10
 70
     1
102
RTVSPropertyOp11
 70
     1
102
RTVSPropertyOp12
 70
     1
102
RTVSPropertyOp13
 70
     1
102
RTVSPropertyOp14
 70
     1
102
RTVSPropertyOp15
 70
     1
102
RTVSPropertyOp16
 70
     1
102
RTVSPropertyOp17
 70
     1
102
RTVSPropertyOp18
 70
     1
102
RTVSPropertyOp19
 70
     1
102
RTVSPropertyOp20
 70
     1
102
RTVSPropertyOp21
 70
     1
102
RTVSPropertyOp22
 70
     1
102
RTVSPropertyOp23
 70
     1
102
RTVSPropertyOp24
 70
     1
102
RTVSPropertyOp25
 70
     1
102
RTVSPropertyOp26
 70
     1
102
RTVSPropertyOp27
 70
     1
102
RTVSPropertyOp28
 70
     1
102
RTVSPropertyOp29
 70
     1
102
RTVSPropertyOp30
 70
     1
102
RTVSPropertyOp31
 70
     1
102
RTVSPropertyOp32
 70
     1
102
RTVSPropertyOp33
 70
     1
102
RTVSPropertyOp34
 70
     1
102
RTVSPropertyOp35
 70
     1
102
RTVSPropertyOp36
 70
     1
102
RTVSPropertyOp37
 70
     1
102
RTVSPropertyOp38
 70
     1
102
RTVSPropertyOp39
 70
     1
102
RTVSPropertyOp40
 70
     1
102
RTVSPropertyOp41
 70
     1
102
RTVSPropertyOp42
 70
     1
102
RTVSPropertyOp43
 70
     1
102
RTVSPropertyOp44
 70
     1
102
RTVSPropertyOp45
 70
     1
102
RTVSPropertyOp46
 70
     1
102
RTVSPropertyOp47
 70
     1
102
RTVSPropertyOp48
 70
     1
102
RTVSPropertyOp49
 70
     1
102
RTVSPropertyOp50
 70
     1
102
RTVSPropertyOp51
 70
     0
102
RTVSPropertyOp52
 70
     0
102
RTVSPropertyOp53
 70
     1
102
RTVSPropertyOp54
 70
     1
102
RTVSPropertyOp55
 70
     1
102
RTVSPropertyOp56
 70
     1
102
RTVSPropertyOp57
 70
     1
102
RTVSPropertyOp58
 70
     1
102
RTVSPropertyOp59
 70
     1
102
RTVSPropertyOp60
 70
     1
102
RTVSPropertyOp61
 70
     1
102
RTVSPropertyOp62
 70
     1
  0
XRECORD
  5
383E
102
{ACAD_REACTORS
330
383D
102
}
330
383D
100
AcDbXrecord
280
     1
102
RTVSPost2010Prop28
280
     0
102
RTVSPost2010PropOp28
 70
     0
102
RTVSPost2010Prop29
280
     1
102
RTVSPost2010PropOp29
 70
     0
102
RTVSPost2010Prop30
280
     1
102
RTVSPost2010PropOp30
 70
     0
102
RTVSPost2010Prop31
280
     0
102
RTVSPost2010PropOp31
 70
     0
102
RTVSPost2010Prop32
280
     0
102
RTVSPost2010PropOp32
 70
     0
102
RTVSPost2010Prop33
280
     0
102
RTVSPost2010PropOp33
 70
     0
102
RTVSPost2010Prop34
280
     0
102
RTVSPost2010PropOp34
 70
     0
102
RTVSPost2010Prop35
280
     0
102
RTVSPost2010PropOp35
 70
     0
102
RTVSPost2010Prop36
280
     0
102
RTVSPost2010PropOp36
 70
     0
102
RTVSPost2010Prop37
 90
       50
102
RTVSPost2010PropOp37
 70
     0
102
RTVSPost2010Prop38
140
0.0
102
RTVSPost2010PropOp38
 70
     0
102
RTVSPost2010Prop39
140
1.0
102
RTVSPost2010PropOp39
 70
     0
102
RTVSPost2010Prop40
 90
        0
102
RTVSPost2010PropOp40
 70
     0
102
RTVSPost2010Prop41ColorIndex
 90
       18
102
RTVSPost2010Prop41ColorRGB
 90
        0
102
RTVSPost2010PropOp41
 70
     0
102
RTVSPost2010Prop42
 90
       50
102
RTVSPost2010PropOp42
 70
     0
102
RTVSPost2010Prop43
 90
        3
102
RTVSPost2010PropOp43
 70
     0
102
RTVSPost2010Prop44ColorIndex
 90
        5
102
RTVSPost2010Prop44ColorRGB
 90
      255
102
RTVSPost2010PropOp44
 70
     0
102
RTVSPost2010Prop45
280
     0
102
RTVSPost2010PropOp45
 70
     0
102
RTVSPost2010Prop46
 90
       50
102
RTVSPost2010PropOp46
 70
     0
102
RTVSPost2010Prop47
 90
       50
102
RTVSPost2010PropOp47
 70
     0
102
RTVSPost2010Prop48
 90
       50
102
RTVSPost2010PropOp48
 70
     0
102
RTVSPost2010Prop49
280
     0
102
RTVSPost2010PropOp49
 70
     0
102
RTVSPost2010Prop50
 90
       50
102
RTVSPost2010PropOp50
 70
     0
102
RTVSPost2010Prop51ColorIndex
 90
      256
102
RTVSPost2010Prop51ColorRGB
 90
-16777216
102
RTVSPost2010PropOp51
 70
     0
102
RTVSPost2010Prop52
140
1.0
102
RTVSPost2010PropOp52
 70
     0
102
RTVSPost2010Prop53
 90
        2
102
RTVSPost2010PropOp53
 70
     0
102
RTVSPost2010Prop54
  1
strokes_ogs.tif
102
RTVSPost2010PropOp54
 70
     0
102
RTVSPost2010Prop55
280
     0
102
RTVSPost2010PropOp55
 70
     0
102
RTVSPost2010Prop56
140
1.0
102
RTVSPost2010PropOp56
 70
     0
102
RTVSPost2010Prop57
140
1.0
102
RTVSPost2010PropOp57
 70
     0
102
RTVSPropertyOp0
 70
     0
102
RTVSPropertyOp1
 70
     0
102
RTVSPropertyOp2
 70
     0
102
RTVSPropertyOp3
 70
     0
102
RTVSPropertyOp4
 70
     0
102
RTVSPropertyOp5
 70
     0
102
RTVSPropertyOp6
 70
     0
102
RTVSPropertyOp7
 70
     0
102
RTVSPropertyOp8
 70
     0
102
RTVSPropertyOp9
 70
     0
102
RTVSPropertyOp10
 70
     0
102
RTVSPropertyOp11
 70
     0
102
RTVSPropertyOp12
 70
     0
102
RTVSPropertyOp13
 70
     0
102
RTVSPropertyOp14
 70
     2
102
RTVSPropertyOp15
 70
     0
102
RTVSPropertyOp16
 70
     0
102
RTVSPropertyOp17
 70
     0
102
RTVSPropertyOp18
 70
     0
102
RTVSPropertyOp19
 70
     0
102
RTVSPropertyOp20
 70
     0
102
RTVSPropertyOp21
 70
     0
102
RTVSPropertyOp22
 70
     0
102
RTVSPropertyOp23
 70
     0
102
RTVSPropertyOp24
 70
     0
102
RTVSPropertyOp25
 70
     0
102
RTVSPropertyOp26
 70
     0
102
RTVSPropertyOp27
 70
     0
102
RTVSPropertyOp28
 70
     0
102
RTVSPropertyOp29
 70
     0
102
RTVSPropertyOp30
 70
     0
102
RTVSPropertyOp31
 70
     0
102
RTVSPropertyOp32
 70
     0
102
RTVSPropertyOp33
 70
     0
102
RTVSPropertyOp34
 70
     0
102
RTVSPropertyOp35
 70
     0
102
RTVSPropertyOp36
 70
     0
102
RTVSPropertyOp37
 70
     0
102
RTVSPropertyOp38
 70
     0
102
RTVSPropertyOp39
 70
     0
102
RTVSPropertyOp40
 70
     0
102
RTVSPropertyOp41
 70
     0
102
RTVSPropertyOp42
 70
     0
102
RTVSPropertyOp43
 70
     0
102
RTVSPropertyOp44
 70
     0
102
RTVSPropertyOp45
 70
     0
102
RTVSPropertyOp46
 70
     0
102
RTVSPropertyOp47
 70
     0
102
RTVSPropertyOp48
 70
     0
102
RTVSPropertyOp49
 70
     0
102
RTVSPropertyOp50
 70
     0
102
RTVSPropertyOp51
 70
     0
102
RTVSPropertyOp52
 70
     0
102
RTVSPropertyOp53
 70
     0
102
RTVSPropertyOp54
 70
     0
102
RTVSPropertyOp55
 70
     0
102
RTVSPropertyOp56
 70
     0
102
RTVSPropertyOp57
 70
     0
102
RTVSPropertyOp58
 70
     1
102
RTVSPropertyOp59
 70
     1
102
RTVSPropertyOp60
 70
     1
102
RTVSPropertyOp61
 70
     1
102
RTVSPropertyOp62
 70
     1
  0
XRECORD
  5
382E
102
{ACAD_REACTORS
330
382D
102
}
330
382D
100
AcDbXrecord
280
     1
102
RTVSPost2010Prop28
280
     0
102
RTVSPost2010PropOp28
 70
     1
102
RTVSPost2010Prop29
280
     1
102
RTVSPost2010PropOp29
 70
     1
102
RTVSPost2010Prop30
280
     1
102
RTVSPost2010PropOp30
 70
     1
102
RTVSPost2010Prop31
280
     0
102
RTVSPost2010PropOp31
 70
     1
102
RTVSPost2010Prop32
280
     0
102
RTVSPost2010PropOp32
 70
     1
102
RTVSPost2010Prop33
280
     0
102
RTVSPost2010PropOp33
 70
     1
102
RTVSPost2010Prop34
280
     0
102
RTVSPost2010PropOp34
 70
     1
102
RTVSPost2010Prop35
280
     0
102
RTVSPost2010PropOp35
 70
     1
102
RTVSPost2010Prop36
280
     0
102
RTVSPost2010PropOp36
 70
     1
102
RTVSPost2010Prop37
 90
       50
102
RTVSPost2010PropOp37
 70
     1
102
RTVSPost2010Prop38
140
0.0
102
RTVSPost2010PropOp38
 70
     1
102
RTVSPost2010Prop39
140
1.0
102
RTVSPost2010PropOp39
 70
     1
102
RTVSPost2010Prop40
 90
        0
102
RTVSPost2010PropOp40
 70
     1
102
RTVSPost2010Prop41ColorIndex
 90
       18
102
RTVSPost2010Prop41ColorRGB
 90
        0
102
RTVSPost2010PropOp41
 70
     1
102
RTVSPost2010Prop42
 90
       50
102
RTVSPost2010PropOp42
 70
     1
102
RTVSPost2010Prop43
 90
        3
102
RTVSPost2010PropOp43
 70
     1
102
RTVSPost2010Prop44ColorIndex
 90
        5
102
RTVSPost2010Prop44ColorRGB
 90
      255
102
RTVSPost2010PropOp44
 70
     1
102
RTVSPost2010Prop45
280
     0
102
RTVSPost2010PropOp45
 70
     1
102
RTVSPost2010Prop46
 90
       50
102
RTVSPost2010PropOp46
 70
     1
102
RTVSPost2010Prop47
 90
       50
102
RTVSPost2010PropOp47
 70
     1
102
RTVSPost2010Prop48
 90
       50
102
RTVSPost2010PropOp48
 70
     1
102
RTVSPost2010Prop49
280
     0
102
RTVSPost2010PropOp49
 70
     1
102
RTVSPost2010Prop50
 90
       50
102
RTVSPost2010PropOp50
 70
     1
102
RTVSPost2010Prop51ColorIndex
 90
      256
102
RTVSPost2010Prop51ColorRGB
 90
-16777216
102
RTVSPost2010PropOp51
 70
     0
102
RTVSPost2010Prop52
140
1.0
102
RTVSPost2010PropOp52
 70
     0
102
RTVSPost2010Prop53
 90
        2
102
RTVSPost2010PropOp53
 70
     1
102
RTVSPost2010Prop54
  1
strokes_ogs.tif
102
RTVSPost2010PropOp54
 70
     1
102
RTVSPost2010Prop55
280
     0
102
RTVSPost2010PropOp55
 70
     1
102
RTVSPost2010Prop56
140
1.0
102
RTVSPost2010PropOp56
 70
     1
102
RTVSPost2010Prop57
140
1.0
102
RTVSPost2010PropOp57
 70
     1
102
RTVSPropertyOp0
 70
     1
102
RTVSPropertyOp1
 70
     1
102
RTVSPropertyOp2
 70
     1
102
RTVSPropertyOp3
 70
     1
102
RTVSPropertyOp4
 70
     1
102
RTVSPropertyOp5
 70
     1
102
RTVSPropertyOp6
 70
     1
102
RTVSPropertyOp7
 70
     1
102
RTVSPropertyOp8
 70
     1
102
RTVSPropertyOp9
 70
     1
102
RTVSPropertyOp10
 70
     1
102
RTVSPropertyOp11
 70
     1
102
RTVSPropertyOp12
 70
     1
102
RTVSPropertyOp13
 70
     1
102
RTVSPropertyOp14
 70
     1
102
RTVSPropertyOp15
 70
     1
102
RTVSPropertyOp16
 70
     1
102
RTVSPropertyOp17
 70
     1
102
RTVSPropertyOp18
 70
     1
102
RTVSPropertyOp19
 70
     1
102
RTVSPropertyOp20
 70
     1
102
RTVSPropertyOp21
 70
     1
102
RTVSPropertyOp22
 70
     1
102
RTVSPropertyOp23
 70
     1
102
RTVSPropertyOp24
 70
     1
102
RTVSPropertyOp25
 70
     1
102
RTVSPropertyOp26
 70
     1
102
RTVSPropertyOp27
 70
     1
102
RTVSPropertyOp28
 70
     1
102
RTVSPropertyOp29
 70
     1
102
RTVSPropertyOp30
 70
     1
102
RTVSPropertyOp31
 70
     1
102
RTVSPropertyOp32
 70
     1
102
RTVSPropertyOp33
 70
     1
102
RTVSPropertyOp34
 70
     1
102
RTVSPropertyOp35
 70
     1
102
RTVSPropertyOp36
 70
     1
102
RTVSPropertyOp37
 70
     1
102
RTVSPropertyOp38
 70
     1
102
RTVSPropertyOp39
 70
     1
102
RTVSPropertyOp40
 70
     1
102
RTVSPropertyOp41
 70
     1
102
RTVSPropertyOp42
 70
     1
102
RTVSPropertyOp43
 70
     1
102
RTVSPropertyOp44
 70
     1
102
RTVSPropertyOp45
 70
     1
102
RTVSPropertyOp46
 70
     1
102
RTVSPropertyOp47
 70
     1
102
RTVSPropertyOp48
 70
     1
102
RTVSPropertyOp49
 70
     1
102
RTVSPropertyOp50
 70
     1
102
RTVSPropertyOp51
 70
     0
102
RTVSPropertyOp52
 70
     0
102
RTVSPropertyOp53
 70
     1
102
RTVSPropertyOp54
 70
     1
102
RTVSPropertyOp55
 70
     1
102
RTVSPropertyOp56
 70
     1
102
RTVSPropertyOp57
 70
     1
102
RTVSPropertyOp58
 70
     1
102
RTVSPropertyOp59
 70
     1
102
RTVSPropertyOp60
 70
     1
102
RTVSPropertyOp61
 70
     1
102
RTVSPropertyOp62
 70
     1
  0
XRECORD
  5
3840
102
{ACAD_REACTORS
330
383F
102
}
330
383F
100
AcDbXrecord
280
     1
102
RTVSPost2010Prop28
280
     0
102
RTVSPost2010PropOp28
 70
     0
102
RTVSPost2010Prop29
280
     1
102
RTVSPost2010PropOp29
 70
     0
102
RTVSPost2010Prop30
280
     1
102
RTVSPost2010PropOp30
 70
     0
102
RTVSPost2010Prop31
280
     0
102
RTVSPost2010PropOp31
 70
     0
102
RTVSPost2010Prop32
280
     0
102
RTVSPost2010PropOp32
 70
     0
102
RTVSPost2010Prop33
280
     0
102
RTVSPost2010PropOp33
 70
     0
102
RTVSPost2010Prop34
280
     0
102
RTVSPost2010PropOp34
 70
     0
102
RTVSPost2010Prop35
280
     0
102
RTVSPost2010PropOp35
 70
     0
102
RTVSPost2010Prop36
280
     0
102
RTVSPost2010PropOp36
 70
     0
102
RTVSPost2010Prop37
 90
       50
102
RTVSPost2010PropOp37
 70
     0
102
RTVSPost2010Prop38
140
0.0
102
RTVSPost2010PropOp38
 70
     0
102
RTVSPost2010Prop39
140
1.0
102
RTVSPost2010PropOp39
 70
     0
102
RTVSPost2010Prop40
 90
        0
102
RTVSPost2010PropOp40
 70
     0
102
RTVSPost2010Prop41ColorIndex
 90
       18
102
RTVSPost2010Prop41ColorRGB
 90
        0
102
RTVSPost2010PropOp41
 70
     0
102
RTVSPost2010Prop42
 90
       50
102
RTVSPost2010PropOp42
 70
     0
102
RTVSPost2010Prop43
 90
        3
102
RTVSPost2010PropOp43
 70
     0
102
RTVSPost2010Prop44ColorIndex
 90
        5
102
RTVSPost2010Prop44ColorRGB
 90
      255
102
RTVSPost2010PropOp44
 70
     0
102
RTVSPost2010Prop45
280
     0
102
RTVSPost2010PropOp45
 70
     0
102
RTVSPost2010Prop46
 90
       50
102
RTVSPost2010PropOp46
 70
     0
102
RTVSPost2010Prop47
 90
       50
102
RTVSPost2010PropOp47
 70
     0
102
RTVSPost2010Prop48
 90
       50
102
RTVSPost2010PropOp48
 70
     0
102
RTVSPost2010Prop49
280
     0
102
RTVSPost2010PropOp49
 70
     0
102
RTVSPost2010Prop50
 90
       50
102
RTVSPost2010PropOp50
 70
     0
102
RTVSPost2010Prop51ColorIndex
 90
      256
102
RTVSPost2010Prop51ColorRGB
 90
-16777216
102
RTVSPost2010PropOp51
 70
     0
102
RTVSPost2010Prop52
140
1.0
102
RTVSPost2010PropOp52
 70
     0
102
RTVSPost2010Prop53
 90
        2
102
RTVSPost2010PropOp53
 70
     0
102
RTVSPost2010Prop54
  1
strokes_ogs.tif
102
RTVSPost2010PropOp54
 70
     0
102
RTVSPost2010Prop55
280
     0
102
RTVSPost2010PropOp55
 70
     0
102
RTVSPost2010Prop56
140
1.0
102
RTVSPost2010PropOp56
 70
     0
102
RTVSPost2010Prop57
140
1.0
102
RTVSPost2010PropOp57
 70
     0
102
RTVSPropertyOp0
 70
     0
102
RTVSPropertyOp1
 70
     0
102
RTVSPropertyOp2
 70
     0
102
RTVSPropertyOp3
 70
     0
102
RTVSPropertyOp4
 70
     0
102
RTVSPropertyOp5
 70
     0
102
RTVSPropertyOp6
 70
     0
102
RTVSPropertyOp7
 70
     0
102
RTVSPropertyOp8
 70
     0
102
RTVSPropertyOp9
 70
     0
102
RTVSPropertyOp10
 70
     0
102
RTVSPropertyOp11
 70
     0
102
RTVSPropertyOp12
 70
     0
102
RTVSPropertyOp13
 70
     0
102
RTVSPropertyOp14
 70
     2
102
RTVSPropertyOp15
 70
     0
102
RTVSPropertyOp16
 70
     0
102
RTVSPropertyOp17
 70
     0
102
RTVSPropertyOp18
 70
     0
102
RTVSPropertyOp19
 70
     0
102
RTVSPropertyOp20
 70
     0
102
RTVSPropertyOp21
 70
     0
102
RTVSPropertyOp22
 70
     0
102
RTVSPropertyOp23
 70
     0
102
RTVSPropertyOp24
 70
     0
102
RTVSPropertyOp25
 70
     0
102
RTVSPropertyOp26
 70
     0
102
RTVSPropertyOp27
 70
     0
102
RTVSPropertyOp28
 70
     0
102
RTVSPropertyOp29
 70
     0
102
RTVSPropertyOp30
 70
     0
102
RTVSPropertyOp31
 70
     0
102
RTVSPropertyOp32
 70
     0
102
RTVSPropertyOp33
 70
     0
102
RTVSPropertyOp34
 70
     0
102
RTVSPropertyOp35
 70
     0
102
RTVSPropertyOp36
 70
     0
102
RTVSPropertyOp37
 70
     0
102
RTVSPropertyOp38
 70
     0
102
RTVSPropertyOp39
 70
     0
102
RTVSPropertyOp40
 70
     0
102
RTVSPropertyOp41
 70
     0
102
RTVSPropertyOp42
 70
     0
102
RTVSPropertyOp43
 70
     0
102
RTVSPropertyOp44
 70
     0
102
RTVSPropertyOp45
 70
     0
102
RTVSPropertyOp46
 70
     0
102
RTVSPropertyOp47
 70
     0
102
RTVSPropertyOp48
 70
     0
102
RTVSPropertyOp49
 70
     0
102
RTVSPropertyOp50
 70
     0
102
RTVSPropertyOp51
 70
     0
102
RTVSPropertyOp52
 70
     0
102
RTVSPropertyOp53
 70
     0
102
RTVSPropertyOp54
 70
     0
102
RTVSPropertyOp55
 70
     0
102
RTVSPropertyOp56
 70
     0
102
RTVSPropertyOp57
 70
     0
102
RTVSPropertyOp58
 70
     1
102
RTVSPropertyOp59
 70
     1
102
RTVSPropertyOp60
 70
     1
102
RTVSPropertyOp61
 70
     1
102
RTVSPropertyOp62
 70
     1
  0
XRECORD
  5
3826
102
{ACAD_REACTORS
330
3825
102
}
330
3825
100
AcDbXrecord
280
     1
102
RTVSPost2010Prop28
280
     0
102
RTVSPost2010PropOp28
 70
     1
102
RTVSPost2010Prop29
280
     1
102
RTVSPost2010PropOp29
 70
     1
102
RTVSPost2010Prop30
280
     1
102
RTVSPost2010PropOp30
 70
     1
102
RTVSPost2010Prop31
280
     0
102
RTVSPost2010PropOp31
 70
     1
102
RTVSPost2010Prop32
280
     0
102
RTVSPost2010PropOp32
 70
     1
102
RTVSPost2010Prop33
280
     0
102
RTVSPost2010PropOp33
 70
     1
102
RTVSPost2010Prop34
280
     0
102
RTVSPost2010PropOp34
 70
     1
102
RTVSPost2010Prop35
280
     0
102
RTVSPost2010PropOp35
 70
     1
102
RTVSPost2010Prop36
280
     0
102
RTVSPost2010PropOp36
 70
     1
102
RTVSPost2010Prop37
 90
       50
102
RTVSPost2010PropOp37
 70
     1
102
RTVSPost2010Prop38
140
0.0
102
RTVSPost2010PropOp38
 70
     1
102
RTVSPost2010Prop39
140
1.0
102
RTVSPost2010PropOp39
 70
     1
102
RTVSPost2010Prop40
 90
        0
102
RTVSPost2010PropOp40
 70
     1
102
RTVSPost2010Prop41ColorIndex
 90
       18
102
RTVSPost2010Prop41ColorRGB
 90
        0
102
RTVSPost2010PropOp41
 70
     1
102
RTVSPost2010Prop42
 90
       50
102
RTVSPost2010PropOp42
 70
     1
102
RTVSPost2010Prop43
 90
        3
102
RTVSPost2010PropOp43
 70
     1
102
RTVSPost2010Prop44ColorIndex
 90
        5
102
RTVSPost2010Prop44ColorRGB
 90
      255
102
RTVSPost2010PropOp44
 70
     1
102
RTVSPost2010Prop45
280
     0
102
RTVSPost2010PropOp45
 70
     1
102
RTVSPost2010Prop46
 90
       50
102
RTVSPost2010PropOp46
 70
     1
102
RTVSPost2010Prop47
 90
       50
102
RTVSPost2010PropOp47
 70
     1
102
RTVSPost2010Prop48
 90
       50
102
RTVSPost2010PropOp48
 70
     1
102
RTVSPost2010Prop49
280
     0
102
RTVSPost2010PropOp49
 70
     1
102
RTVSPost2010Prop50
 90
       50
102
RTVSPost2010PropOp50
 70
     1
102
RTVSPost2010Prop51ColorIndex
 90
      256
102
RTVSPost2010Prop51ColorRGB
 90
-16777216
102
RTVSPost2010PropOp51
 70
     0
102
RTVSPost2010Prop52
140
1.0
102
RTVSPost2010PropOp52
 70
     0
102
RTVSPost2010Prop53
 90
        2
102
RTVSPost2010PropOp53
 70
     1
102
RTVSPost2010Prop54
  1
strokes_ogs.tif
102
RTVSPost2010PropOp54
 70
     1
102
RTVSPost2010Prop55
280
     0
102
RTVSPost2010PropOp55
 70
     1
102
RTVSPost2010Prop56
140
1.0
102
RTVSPost2010PropOp56
 70
     1
102
RTVSPost2010Prop57
140
1.0
102
RTVSPost2010PropOp57
 70
     1
102
RTVSPropertyOp0
 70
     1
102
RTVSPropertyOp1
 70
     1
102
RTVSPropertyOp2
 70
     1
102
RTVSPropertyOp3
 70
     1
102
RTVSPropertyOp4
 70
     1
102
RTVSPropertyOp5
 70
     1
102
RTVSPropertyOp6
 70
     1
102
RTVSPropertyOp7
 70
     1
102
RTVSPropertyOp8
 70
     1
102
RTVSPropertyOp9
 70
     1
102
RTVSPropertyOp10
 70
     1
102
RTVSPropertyOp11
 70
     1
102
RTVSPropertyOp12
 70
     1
102
RTVSPropertyOp13
 70
     1
102
RTVSPropertyOp14
 70
     1
102
RTVSPropertyOp15
 70
     1
102
RTVSPropertyOp16
 70
     1
102
RTVSPropertyOp17
 70
     1
102
RTVSPropertyOp18
 70
     1
102
RTVSPropertyOp19
 70
     1
102
RTVSPropertyOp20
 70
     1
102
RTVSPropertyOp21
 70
     1
102
RTVSPropertyOp22
 70
     1
102
RTVSPropertyOp23
 70
     1
102
RTVSPropertyOp24
 70
     1
102
RTVSPropertyOp25
 70
     1
102
RTVSPropertyOp26
 70
     1
102
RTVSPropertyOp27
 70
     1
102
RTVSPropertyOp28
 70
     1
102
RTVSPropertyOp29
 70
     1
102
RTVSPropertyOp30
 70
     1
102
RTVSPropertyOp31
 70
     1
102
RTVSPropertyOp32
 70
     1
102
RTVSPropertyOp33
 70
     1
102
RTVSPropertyOp34
 70
     1
102
RTVSPropertyOp35
 70
     1
102
RTVSPropertyOp36
 70
     1
102
RTVSPropertyOp37
 70
     1
102
RTVSPropertyOp38
 70
     1
102
RTVSPropertyOp39
 70
     1
102
RTVSPropertyOp40
 70
     1
102
RTVSPropertyOp41
 70
     1
102
RTVSPropertyOp42
 70
     1
102
RTVSPropertyOp43
 70
     1
102
RTVSPropertyOp44
 70
     1
102
RTVSPropertyOp45
 70
     1
102
RTVSPropertyOp46
 70
     1
102
RTVSPropertyOp47
 70
     1
102
RTVSPropertyOp48
 70
     1
102
RTVSPropertyOp49
 70
     1
102
RTVSPropertyOp50
 70
     1
102
RTVSPropertyOp51
 70
     0
102
RTVSPropertyOp52
 70
     0
102
RTVSPropertyOp53
 70
     1
102
RTVSPropertyOp54
 70
     1
102
RTVSPropertyOp55
 70
     1
102
RTVSPropertyOp56
 70
     1
102
RTVSPropertyOp57
 70
     1
102
RTVSPropertyOp58
 70
     1
102
RTVSPropertyOp59
 70
     1
102
RTVSPropertyOp60
 70
     1
102
RTVSPropertyOp61
 70
     1
102
RTVSPropertyOp62
 70
     1
  0
XRECORD
  5
383C
102
{ACAD_REACTORS
330
383B
102
}
330
383B
100
AcDbXrecord
280
     1
102
RTVSPost2010Prop28
280
     0
102
RTVSPost2010PropOp28
 70
     1
102
RTVSPost2010Prop29
280
     1
102
RTVSPost2010PropOp29
 70
     1
102
RTVSPost2010Prop30
280
     1
102
RTVSPost2010PropOp30
 70
     1
102
RTVSPost2010Prop31
280
     0
102
RTVSPost2010PropOp31
 70
     1
102
RTVSPost2010Prop32
280
     0
102
RTVSPost2010PropOp32
 70
     1
102
RTVSPost2010Prop33
280
     0
102
RTVSPost2010PropOp33
 70
     1
102
RTVSPost2010Prop34
280
     0
102
RTVSPost2010PropOp34
 70
     1
102
RTVSPost2010Prop35
280
     0
102
RTVSPost2010PropOp35
 70
     1
102
RTVSPost2010Prop36
280
     0
102
RTVSPost2010PropOp36
 70
     1
102
RTVSPost2010Prop37
 90
       50
102
RTVSPost2010PropOp37
 70
     1
102
RTVSPost2010Prop38
140
0.0
102
RTVSPost2010PropOp38
 70
     1
102
RTVSPost2010Prop39
140
1.0
102
RTVSPost2010PropOp39
 70
     1
102
RTVSPost2010Prop40
 90
        0
102
RTVSPost2010PropOp40
 70
     1
102
RTVSPost2010Prop41ColorIndex
 90
       18
102
RTVSPost2010Prop41ColorRGB
 90
        0
102
RTVSPost2010PropOp41
 70
     1
102
RTVSPost2010Prop42
 90
       50
102
RTVSPost2010PropOp42
 70
     1
102
RTVSPost2010Prop43
 90
        3
102
RTVSPost2010PropOp43
 70
     1
102
RTVSPost2010Prop44ColorIndex
 90
        5
102
RTVSPost2010Prop44ColorRGB
 90
      255
102
RTVSPost2010PropOp44
 70
     1
102
RTVSPost2010Prop45
280
     0
102
RTVSPost2010PropOp45
 70
     1
102
RTVSPost2010Prop46
 90
       50
102
RTVSPost2010PropOp46
 70
     1
102
RTVSPost2010Prop47
 90
       50
102
RTVSPost2010PropOp47
 70
     1
102
RTVSPost2010Prop48
 90
       50
102
RTVSPost2010PropOp48
 70
     1
102
RTVSPost2010Prop49
280
     0
102
RTVSPost2010PropOp49
 70
     1
102
RTVSPost2010Prop50
 90
       50
102
RTVSPost2010PropOp50
 70
     1
102
RTVSPost2010Prop51ColorIndex
 90
      256
102
RTVSPost2010Prop51ColorRGB
 90
-16777216
102
RTVSPost2010PropOp51
 70
     0
102
RTVSPost2010Prop52
140
1.0
102
RTVSPost2010PropOp52
 70
     0
102
RTVSPost2010Prop53
 90
        2
102
RTVSPost2010PropOp53
 70
     1
102
RTVSPost2010Prop54
  1
strokes_ogs.tif
102
RTVSPost2010PropOp54
 70
     1
102
RTVSPost2010Prop55
280
     0
102
RTVSPost2010PropOp55
 70
     1
102
RTVSPost2010Prop56
140
1.0
102
RTVSPost2010PropOp56
 70
     1
102
RTVSPost2010Prop57
140
1.0
102
RTVSPost2010PropOp57
 70
     1
102
RTVSPropertyOp0
 70
     1
102
RTVSPropertyOp1
 70
     1
102
RTVSPropertyOp2
 70
     1
102
RTVSPropertyOp3
 70
     1
102
RTVSPropertyOp4
 70
     1
102
RTVSPropertyOp5
 70
     1
102
RTVSPropertyOp6
 70
     1
102
RTVSPropertyOp7
 70
     1
102
RTVSPropertyOp8
 70
     1
102
RTVSPropertyOp9
 70
     1
102
RTVSPropertyOp10
 70
     1
102
RTVSPropertyOp11
 70
     1
102
RTVSPropertyOp12
 70
     1
102
RTVSPropertyOp13
 70
     1
102
RTVSPropertyOp14
 70
     1
102
RTVSPropertyOp15
 70
     1
102
RTVSPropertyOp16
 70
     1
102
RTVSPropertyOp17
 70
     1
102
RTVSPropertyOp18
 70
     1
102
RTVSPropertyOp19
 70
     1
102
RTVSPropertyOp20
 70
     1
102
RTVSPropertyOp21
 70
     1
102
RTVSPropertyOp22
 70
     1
102
RTVSPropertyOp23
 70
     1
102
RTVSPropertyOp24
 70
     1
102
RTVSPropertyOp25
 70
     1
102
RTVSPropertyOp26
 70
     1
102
RTVSPropertyOp27
 70
     1
102
RTVSPropertyOp28
 70
     1
102
RTVSPropertyOp29
 70
     1
102
RTVSPropertyOp30
 70
     1
102
RTVSPropertyOp31
 70
     1
102
RTVSPropertyOp32
 70
     1
102
RTVSPropertyOp33
 70
     1
102
RTVSPropertyOp34
 70
     1
102
RTVSPropertyOp35
 70
     1
102
RTVSPropertyOp36
 70
     1
102
RTVSPropertyOp37
 70
     1
102
RTVSPropertyOp38
 70
     1
102
RTVSPropertyOp39
 70
     1
102
RTVSPropertyOp40
 70
     1
102
RTVSPropertyOp41
 70
     1
102
RTVSPropertyOp42
 70
     1
102
RTVSPropertyOp43
 70
     1
102
RTVSPropertyOp44
 70
     1
102
RTVSPropertyOp45
 70
     1
102
RTVSPropertyOp46
 70
     1
102
RTVSPropertyOp47
 70
     1
102
RTVSPropertyOp48
 70
     1
102
RTVSPropertyOp49
 70
     1
102
RTVSPropertyOp50
 70
     1
102
RTVSPropertyOp51
 70
     0
102
RTVSPropertyOp52
 70
     0
102
RTVSPropertyOp53
 70
     1
102
RTVSPropertyOp54
 70
     1
102
RTVSPropertyOp55
 70
     1
102
RTVSPropertyOp56
 70
     1
102
RTVSPropertyOp57
 70
     1
102
RTVSPropertyOp58
 70
     1
102
RTVSPropertyOp59
 70
     1
102
RTVSPropertyOp60
 70
     1
102
RTVSPropertyOp61
 70
     1
102
RTVSPropertyOp62
 70
     1
  0
XRECORD
  5
383A
102
{ACAD_REACTORS
330
3839
102
}
330
3839
100
AcDbXrecord
280
     1
102
RTVSPost2010Prop28
280
     0
102
RTVSPost2010PropOp28
 70
     1
102
RTVSPost2010Prop29
280
     1
102
RTVSPost2010PropOp29
 70
     1
102
RTVSPost2010Prop30
280
     1
102
RTVSPost2010PropOp30
 70
     1
102
RTVSPost2010Prop31
280
     0
102
RTVSPost2010PropOp31
 70
     1
102
RTVSPost2010Prop32
280
     0
102
RTVSPost2010PropOp32
 70
     1
102
RTVSPost2010Prop33
280
     0
102
RTVSPost2010PropOp33
 70
     1
102
RTVSPost2010Prop34
280
     0
102
RTVSPost2010PropOp34
 70
     1
102
RTVSPost2010Prop35
280
     0
102
RTVSPost2010PropOp35
 70
     1
102
RTVSPost2010Prop36
280
     0
102
RTVSPost2010PropOp36
 70
     1
102
RTVSPost2010Prop37
 90
       50
102
RTVSPost2010PropOp37
 70
     1
102
RTVSPost2010Prop38
140
0.0
102
RTVSPost2010PropOp38
 70
     1
102
RTVSPost2010Prop39
140
1.0
102
RTVSPost2010PropOp39
 70
     1
102
RTVSPost2010Prop40
 90
        0
102
RTVSPost2010PropOp40
 70
     1
102
RTVSPost2010Prop41ColorIndex
 90
       18
102
RTVSPost2010Prop41ColorRGB
 90
        0
102
RTVSPost2010PropOp41
 70
     1
102
RTVSPost2010Prop42
 90
       50
102
RTVSPost2010PropOp42
 70
     1
102
RTVSPost2010Prop43
 90
        3
102
RTVSPost2010PropOp43
 70
     1
102
RTVSPost2010Prop44ColorIndex
 90
        5
102
RTVSPost2010Prop44ColorRGB
 90
      255
102
RTVSPost2010PropOp44
 70
     1
102
RTVSPost2010Prop45
280
     0
102
RTVSPost2010PropOp45
 70
     1
102
RTVSPost2010Prop46
 90
       50
102
RTVSPost2010PropOp46
 70
     1
102
RTVSPost2010Prop47
 90
       50
102
RTVSPost2010PropOp47
 70
     1
102
RTVSPost2010Prop48
 90
       50
102
RTVSPost2010PropOp48
 70
     1
102
RTVSPost2010Prop49
280
     0
102
RTVSPost2010PropOp49
 70
     1
102
RTVSPost2010Prop50
 90
       50
102
RTVSPost2010PropOp50
 70
     1
102
RTVSPost2010Prop51ColorIndex
 90
      256
102
RTVSPost2010Prop51ColorRGB
 90
-16777216
102
RTVSPost2010PropOp51
 70
     0
102
RTVSPost2010Prop52
140
1.0
102
RTVSPost2010PropOp52
 70
     0
102
RTVSPost2010Prop53
 90
        2
102
RTVSPost2010PropOp53
 70
     1
102
RTVSPost2010Prop54
  1
strokes_ogs.tif
102
RTVSPost2010PropOp54
 70
     1
102
RTVSPost2010Prop55
280
     0
102
RTVSPost2010PropOp55
 70
     1
102
RTVSPost2010Prop56
140
1.0
102
RTVSPost2010PropOp56
 70
     1
102
RTVSPost2010Prop57
140
1.0
102
RTVSPost2010PropOp57
 70
     1
102
RTVSPropertyOp0
 70
     1
102
RTVSPropertyOp1
 70
     1
102
RTVSPropertyOp2
 70
     1
102
RTVSPropertyOp3
 70
     1
102
RTVSPropertyOp4
 70
     1
102
RTVSPropertyOp5
 70
     1
102
RTVSPropertyOp6
 70
     1
102
RTVSPropertyOp7
 70
     1
102
RTVSPropertyOp8
 70
     1
102
RTVSPropertyOp9
 70
     1
102
RTVSPropertyOp10
 70
     1
102
RTVSPropertyOp11
 70
     1
102
RTVSPropertyOp12
 70
     1
102
RTVSPropertyOp13
 70
     1
102
RTVSPropertyOp14
 70
     1
102
RTVSPropertyOp15
 70
     1
102
RTVSPropertyOp16
 70
     1
102
RTVSPropertyOp17
 70
     1
102
RTVSPropertyOp18
 70
     1
102
RTVSPropertyOp19
 70
     1
102
RTVSPropertyOp20
 70
     1
102
RTVSPropertyOp21
 70
     1
102
RTVSPropertyOp22
 70
     1
102
RTVSPropertyOp23
 70
     1
102
RTVSPropertyOp24
 70
     1
102
RTVSPropertyOp25
 70
     1
102
RTVSPropertyOp26
 70
     1
102
RTVSPropertyOp27
 70
     1
102
RTVSPropertyOp28
 70
     1
102
RTVSPropertyOp29
 70
     1
102
RTVSPropertyOp30
 70
     1
102
RTVSPropertyOp31
 70
     1
102
RTVSPropertyOp32
 70
     1
102
RTVSPropertyOp33
 70
     1
102
RTVSPropertyOp34
 70
     1
102
RTVSPropertyOp35
 70
     1
102
RTVSPropertyOp36
 70
     1
102
RTVSPropertyOp37
 70
     1
102
RTVSPropertyOp38
 70
     1
102
RTVSPropertyOp39
 70
     1
102
RTVSPropertyOp40
 70
     1
102
RTVSPropertyOp41
 70
     1
102
RTVSPropertyOp42
 70
     1
102
RTVSPropertyOp43
 70
     1
102
RTVSPropertyOp44
 70
     1
102
RTVSPropertyOp45
 70
     1
102
RTVSPropertyOp46
 70
     1
102
RTVSPropertyOp47
 70
     1
102
RTVSPropertyOp48
 70
     1
102
RTVSPropertyOp49
 70
     1
102
RTVSPropertyOp50
 70
     1
102
RTVSPropertyOp51
 70
     0
102
RTVSPropertyOp52
 70
     0
102
RTVSPropertyOp53
 70
     1
102
RTVSPropertyOp54
 70
     1
102
RTVSPropertyOp55
 70
     1
102
RTVSPropertyOp56
 70
     1
102
RTVSPropertyOp57
 70
     1
102
RTVSPropertyOp58
 70
     1
102
RTVSPropertyOp59
 70
     1
102
RTVSPropertyOp60
 70
     1
102
RTVSPropertyOp61
 70
     1
102
RTVSPropertyOp62
 70
     1
  0
XRECORD
  5
3834
102
{ACAD_REACTORS
330
3833
102
}
330
3833
100
AcDbXrecord
280
     1
102
RTVSPost2010Prop28
280
     0
102
RTVSPost2010PropOp28
 70
     1
102
RTVSPost2010Prop29
280
     1
102
RTVSPost2010PropOp29
 70
     1
102
RTVSPost2010Prop30
280
     1
102
RTVSPost2010PropOp30
 70
     1
102
RTVSPost2010Prop31
280
     0
102
RTVSPost2010PropOp31
 70
     1
102
RTVSPost2010Prop32
280
     0
102
RTVSPost2010PropOp32
 70
     1
102
RTVSPost2010Prop33
280
     0
102
RTVSPost2010PropOp33
 70
     1
102
RTVSPost2010Prop34
280
     0
102
RTVSPost2010PropOp34
 70
     1
102
RTVSPost2010Prop35
280
     0
102
RTVSPost2010PropOp35
 70
     1
102
RTVSPost2010Prop36
280
     0
102
RTVSPost2010PropOp36
 70
     1
102
RTVSPost2010Prop37
 90
       50
102
RTVSPost2010PropOp37
 70
     1
102
RTVSPost2010Prop38
140
0.0
102
RTVSPost2010PropOp38
 70
     1
102
RTVSPost2010Prop39
140
1.0
102
RTVSPost2010PropOp39
 70
     1
102
RTVSPost2010Prop40
 90
        0
102
RTVSPost2010PropOp40
 70
     1
102
RTVSPost2010Prop41ColorIndex
 90
       18
102
RTVSPost2010Prop41ColorRGB
 90
        0
102
RTVSPost2010PropOp41
 70
     1
102
RTVSPost2010Prop42
 90
       50
102
RTVSPost2010PropOp42
 70
     1
102
RTVSPost2010Prop43
 90
        3
102
RTVSPost2010PropOp43
 70
     1
102
RTVSPost2010Prop44ColorIndex
 90
        5
102
RTVSPost2010Prop44ColorRGB
 90
      255
102
RTVSPost2010PropOp44
 70
     1
102
RTVSPost2010Prop45
280
     0
102
RTVSPost2010PropOp45
 70
     1
102
RTVSPost2010Prop46
 90
       50
102
RTVSPost2010PropOp46
 70
     1
102
RTVSPost2010Prop47
 90
       50
102
RTVSPost2010PropOp47
 70
     1
102
RTVSPost2010Prop48
 90
       50
102
RTVSPost2010PropOp48
 70
     1
102
RTVSPost2010Prop49
280
     0
102
RTVSPost2010PropOp49
 70
     1
102
RTVSPost2010Prop50
 90
       50
102
RTVSPost2010PropOp50
 70
     1
102
RTVSPost2010Prop51ColorIndex
 90
      256
102
RTVSPost2010Prop51ColorRGB
 90
-16777216
102
RTVSPost2010PropOp51
 70
     0
102
RTVSPost2010Prop52
140
1.0
102
RTVSPost2010PropOp52
 70
     0
102
RTVSPost2010Prop53
 90
        2
102
RTVSPost2010PropOp53
 70
     1
102
RTVSPost2010Prop54
  1
strokes_ogs.tif
102
RTVSPost2010PropOp54
 70
     1
102
RTVSPost2010Prop55
280
     0
102
RTVSPost2010PropOp55
 70
     1
102
RTVSPost2010Prop56
140
1.0
102
RTVSPost2010PropOp56
 70
     1
102
RTVSPost2010Prop57
140
1.0
102
RTVSPost2010PropOp57
 70
     1
102
RTVSPropertyOp0
 70
     1
102
RTVSPropertyOp1
 70
     1
102
RTVSPropertyOp2
 70
     1
102
RTVSPropertyOp3
 70
     1
102
RTVSPropertyOp4
 70
     1
102
RTVSPropertyOp5
 70
     1
102
RTVSPropertyOp6
 70
     1
102
RTVSPropertyOp7
 70
     1
102
RTVSPropertyOp8
 70
     1
102
RTVSPropertyOp9
 70
     1
102
RTVSPropertyOp10
 70
     1
102
RTVSPropertyOp11
 70
     1
102
RTVSPropertyOp12
 70
     1
102
RTVSPropertyOp13
 70
     1
102
RTVSPropertyOp14
 70
     1
102
RTVSPropertyOp15
 70
     1
102
RTVSPropertyOp16
 70
     1
102
RTVSPropertyOp17
 70
     1
102
RTVSPropertyOp18
 70
     1
102
RTVSPropertyOp19
 70
     1
102
RTVSPropertyOp20
 70
     1
102
RTVSPropertyOp21
 70
     1
102
RTVSPropertyOp22
 70
     1
102
RTVSPropertyOp23
 70
     1
102
RTVSPropertyOp24
 70
     1
102
RTVSPropertyOp25
 70
     1
102
RTVSPropertyOp26
 70
     1
102
RTVSPropertyOp27
 70
     1
102
RTVSPropertyOp28
 70
     1
102
RTVSPropertyOp29
 70
     1
102
RTVSPropertyOp30
 70
     1
102
RTVSPropertyOp31
 70
     1
102
RTVSPropertyOp32
 70
     1
102
RTVSPropertyOp33
 70
     1
102
RTVSPropertyOp34
 70
     1
102
RTVSPropertyOp35
 70
     1
102
RTVSPropertyOp36
 70
     1
102
RTVSPropertyOp37
 70
     1
102
RTVSPropertyOp38
 70
     1
102
RTVSPropertyOp39
 70
     1
102
RTVSPropertyOp40
 70
     1
102
RTVSPropertyOp41
 70
     1
102
RTVSPropertyOp42
 70
     1
102
RTVSPropertyOp43
 70
     1
102
RTVSPropertyOp44
 70
     1
102
RTVSPropertyOp45
 70
     1
102
RTVSPropertyOp46
 70
     1
102
RTVSPropertyOp47
 70
     1
102
RTVSPropertyOp48
 70
     1
102
RTVSPropertyOp49
 70
     1
102
RTVSPropertyOp50
 70
     1
102
RTVSPropertyOp51
 70
     0
102
RTVSPropertyOp52
 70
     0
102
RTVSPropertyOp53
 70
     1
102
RTVSPropertyOp54
 70
     1
102
RTVSPropertyOp55
 70
     1
102
RTVSPropertyOp56
 70
     1
102
RTVSPropertyOp57
 70
     1
102
RTVSPropertyOp58
 70
     1
102
RTVSPropertyOp59
 70
     1
102
RTVSPropertyOp60
 70
     1
102
RTVSPropertyOp61
 70
     1
102
RTVSPropertyOp62
 70
     1
  0
XRECORD
  5
3836
102
{ACAD_REACTORS
330
3835
102
}
330
3835
100
AcDbXrecord
280
     1
102
RTVSPost2010Prop28
280
     0
102
RTVSPost2010PropOp28
 70
     1
102
RTVSPost2010Prop29
280
     1
102
RTVSPost2010PropOp29
 70
     1
102
RTVSPost2010Prop30
280
     1
102
RTVSPost2010PropOp30
 70
     1
102
RTVSPost2010Prop31
280
     0
102
RTVSPost2010PropOp31
 70
     1
102
RTVSPost2010Prop32
280
     0
102
RTVSPost2010PropOp32
 70
     1
102
RTVSPost2010Prop33
280
     0
102
RTVSPost2010PropOp33
 70
     1
102
RTVSPost2010Prop34
280
     0
102
RTVSPost2010PropOp34
 70
     1
102
RTVSPost2010Prop35
280
     0
102
RTVSPost2010PropOp35
 70
     1
102
RTVSPost2010Prop36
280
     0
102
RTVSPost2010PropOp36
 70
     1
102
RTVSPost2010Prop37
 90
       50
102
RTVSPost2010PropOp37
 70
     1
102
RTVSPost2010Prop38
140
0.0
102
RTVSPost2010PropOp38
 70
     1
102
RTVSPost2010Prop39
140
1.0
102
RTVSPost2010PropOp39
 70
     1
102
RTVSPost2010Prop40
 90
        0
102
RTVSPost2010PropOp40
 70
     1
102
RTVSPost2010Prop41ColorIndex
 90
       18
102
RTVSPost2010Prop41ColorRGB
 90
        0
102
RTVSPost2010PropOp41
 70
     1
102
RTVSPost2010Prop42
 90
       50
102
RTVSPost2010PropOp42
 70
     1
102
RTVSPost2010Prop43
 90
        3
102
RTVSPost2010PropOp43
 70
     1
102
RTVSPost2010Prop44ColorIndex
 90
        5
102
RTVSPost2010Prop44ColorRGB
 90
      255
102
RTVSPost2010PropOp44
 70
     1
102
RTVSPost2010Prop45
280
     0
102
RTVSPost2010PropOp45
 70
     1
102
RTVSPost2010Prop46
 90
       50
102
RTVSPost2010PropOp46
 70
     1
102
RTVSPost2010Prop47
 90
       50
102
RTVSPost2010PropOp47
 70
     1
102
RTVSPost2010Prop48
 90
       50
102
RTVSPost2010PropOp48
 70
     1
102
RTVSPost2010Prop49
280
     0
102
RTVSPost2010PropOp49
 70
     1
102
RTVSPost2010Prop50
 90
       50
102
RTVSPost2010PropOp50
 70
     1
102
RTVSPost2010Prop51ColorIndex
 90
      256
102
RTVSPost2010Prop51ColorRGB
 90
-16777216
102
RTVSPost2010PropOp51
 70
     0
102
RTVSPost2010Prop52
140
1.0
102
RTVSPost2010PropOp52
 70
     0
102
RTVSPost2010Prop53
 90
        2
102
RTVSPost2010PropOp53
 70
     1
102
RTVSPost2010Prop54
  1
strokes_ogs.tif
102
RTVSPost2010PropOp54
 70
     1
102
RTVSPost2010Prop55
280
     0
102
RTVSPost2010PropOp55
 70
     1
102
RTVSPost2010Prop56
140
1.0
102
RTVSPost2010PropOp56
 70
     1
102
RTVSPost2010Prop57
140
1.0
102
RTVSPost2010PropOp57
 70
     1
102
RTVSPropertyOp0
 70
     1
102
RTVSPropertyOp1
 70
     1
102
RTVSPropertyOp2
 70
     1
102
RTVSPropertyOp3
 70
     1
102
RTVSPropertyOp4
 70
     1
102
RTVSPropertyOp5
 70
     1
102
RTVSPropertyOp6
 70
     1
102
RTVSPropertyOp7
 70
     1
102
RTVSPropertyOp8
 70
     1
102
RTVSPropertyOp9
 70
     1
102
RTVSPropertyOp10
 70
     1
102
RTVSPropertyOp11
 70
     1
102
RTVSPropertyOp12
 70
     1
102
RTVSPropertyOp13
 70
     1
102
RTVSPropertyOp14
 70
     1
102
RTVSPropertyOp15
 70
     1
102
RTVSPropertyOp16
 70
     1
102
RTVSPropertyOp17
 70
     1
102
RTVSPropertyOp18
 70
     1
102
RTVSPropertyOp19
 70
     1
102
RTVSPropertyOp20
 70
     1
102
RTVSPropertyOp21
 70
     1
102
RTVSPropertyOp22
 70
     1
102
RTVSPropertyOp23
 70
     1
102
RTVSPropertyOp24
 70
     1
102
RTVSPropertyOp25
 70
     1
102
RTVSPropertyOp26
 70
     1
102
RTVSPropertyOp27
 70
     1
102
RTVSPropertyOp28
 70
     1
102
RTVSPropertyOp29
 70
     1
102
RTVSPropertyOp30
 70
     1
102
RTVSPropertyOp31
 70
     1
102
RTVSPropertyOp32
 70
     1
102
RTVSPropertyOp33
 70
     1
102
RTVSPropertyOp34
 70
     1
102
RTVSPropertyOp35
 70
     1
102
RTVSPropertyOp36
 70
     1
102
RTVSPropertyOp37
 70
     1
102
RTVSPropertyOp38
 70
     1
102
RTVSPropertyOp39
 70
     1
102
RTVSPropertyOp40
 70
     1
102
RTVSPropertyOp41
 70
     1
102
RTVSPropertyOp42
 70
     1
102
RTVSPropertyOp43
 70
     1
102
RTVSPropertyOp44
 70
     1
102
RTVSPropertyOp45
 70
     1
102
RTVSPropertyOp46
 70
     1
102
RTVSPropertyOp47
 70
     1
102
RTVSPropertyOp48
 70
     1
102
RTVSPropertyOp49
 70
     1
102
RTVSPropertyOp50
 70
     1
102
RTVSPropertyOp51
 70
     0
102
RTVSPropertyOp52
 70
     0
102
RTVSPropertyOp53
 70
     1
102
RTVSPropertyOp54
 70
     1
102
RTVSPropertyOp55
 70
     1
102
RTVSPropertyOp56
 70
     1
102
RTVSPropertyOp57
 70
     1
102
RTVSPropertyOp58
 70
     1
102
RTVSPropertyOp59
 70
     1
102
RTVSPropertyOp60
 70
     1
102
RTVSPropertyOp61
 70
     1
102
RTVSPropertyOp62
 70
     1
  0
XRECORD
  5
382C
102
{ACAD_REACTORS
330
382B
102
}
330
382B
100
AcDbXrecord
280
     1
102
RTVSPost2010Prop28
280
     0
102
RTVSPost2010PropOp28
 70
     1
102
RTVSPost2010Prop29
280
     1
102
RTVSPost2010PropOp29
 70
     1
102
RTVSPost2010Prop30
280
     1
102
RTVSPost2010PropOp30
 70
     1
102
RTVSPost2010Prop31
280
     0
102
RTVSPost2010PropOp31
 70
     1
102
RTVSPost2010Prop32
280
     0
102
RTVSPost2010PropOp32
 70
     1
102
RTVSPost2010Prop33
280
     0
102
RTVSPost2010PropOp33
 70
     1
102
RTVSPost2010Prop34
280
     0
102
RTVSPost2010PropOp34
 70
     1
102
RTVSPost2010Prop35
280
     0
102
RTVSPost2010PropOp35
 70
     1
102
RTVSPost2010Prop36
280
     0
102
RTVSPost2010PropOp36
 70
     1
102
RTVSPost2010Prop37
 90
       50
102
RTVSPost2010PropOp37
 70
     1
102
RTVSPost2010Prop38
140
0.0
102
RTVSPost2010PropOp38
 70
     1
102
RTVSPost2010Prop39
140
1.0
102
RTVSPost2010PropOp39
 70
     1
102
RTVSPost2010Prop40
 90
        0
102
RTVSPost2010PropOp40
 70
     1
102
RTVSPost2010Prop41ColorIndex
 90
       18
102
RTVSPost2010Prop41ColorRGB
 90
        0
102
RTVSPost2010PropOp41
 70
     1
102
RTVSPost2010Prop42
 90
       50
102
RTVSPost2010PropOp42
 70
     1
102
RTVSPost2010Prop43
 90
        3
102
RTVSPost2010PropOp43
 70
     1
102
RTVSPost2010Prop44ColorIndex
 90
        5
102
RTVSPost2010Prop44ColorRGB
 90
      255
102
RTVSPost2010PropOp44
 70
     1
102
RTVSPost2010Prop45
280
     0
102
RTVSPost2010PropOp45
 70
     1
102
RTVSPost2010Prop46
 90
       50
102
RTVSPost2010PropOp46
 70
     1
102
RTVSPost2010Prop47
 90
       50
102
RTVSPost2010PropOp47
 70
     1
102
RTVSPost2010Prop48
 90
       50
102
RTVSPost2010PropOp48
 70
     1
102
RTVSPost2010Prop49
280
     0
102
RTVSPost2010PropOp49
 70
     1
102
RTVSPost2010Prop50
 90
       50
102
RTVSPost2010PropOp50
 70
     1
102
RTVSPost2010Prop51ColorIndex
 90
      256
102
RTVSPost2010Prop51ColorRGB
 90
-16777216
102
RTVSPost2010PropOp51
 70
     0
102
RTVSPost2010Prop52
140
1.0
102
RTVSPost2010PropOp52
 70
     0
102
RTVSPost2010Prop53
 90
        2
102
RTVSPost2010PropOp53
 70
     1
102
RTVSPost2010Prop54
  1
strokes_ogs.tif
102
RTVSPost2010PropOp54
 70
     1
102
RTVSPost2010Prop55
280
     0
102
RTVSPost2010PropOp55
 70
     1
102
RTVSPost2010Prop56
140
1.0
102
RTVSPost2010PropOp56
 70
     1
102
RTVSPost2010Prop57
140
1.0
102
RTVSPost2010PropOp57
 70
     1
102
RTVSPropertyOp0
 70
     1
102
RTVSPropertyOp1
 70
     1
102
RTVSPropertyOp2
 70
     1
102
RTVSPropertyOp3
 70
     1
102
RTVSPropertyOp4
 70
     1
102
RTVSPropertyOp5
 70
     1
102
RTVSPropertyOp6
 70
     1
102
RTVSPropertyOp7
 70
     1
102
RTVSPropertyOp8
 70
     1
102
RTVSPropertyOp9
 70
     1
102
RTVSPropertyOp10
 70
     1
102
RTVSPropertyOp11
 70
     1
102
RTVSPropertyOp12
 70
     1
102
RTVSPropertyOp13
 70
     1
102
RTVSPropertyOp14
 70
     1
102
RTVSPropertyOp15
 70
     1
102
RTVSPropertyOp16
 70
     1
102
RTVSPropertyOp17
 70
     1
102
RTVSPropertyOp18
 70
     1
102
RTVSPropertyOp19
 70
     1
102
RTVSPropertyOp20
 70
     1
102
RTVSPropertyOp21
 70
     1
102
RTVSPropertyOp22
 70
     1
102
RTVSPropertyOp23
 70
     1
102
RTVSPropertyOp24
 70
     1
102
RTVSPropertyOp25
 70
     1
102
RTVSPropertyOp26
 70
     1
102
RTVSPropertyOp27
 70
     1
102
RTVSPropertyOp28
 70
     1
102
RTVSPropertyOp29
 70
     1
102
RTVSPropertyOp30
 70
     1
102
RTVSPropertyOp31
 70
     1
102
RTVSPropertyOp32
 70
     1
102
RTVSPropertyOp33
 70
     1
102
RTVSPropertyOp34
 70
     1
102
RTVSPropertyOp35
 70
     1
102
RTVSPropertyOp36
 70
     1
102
RTVSPropertyOp37
 70
     1
102
RTVSPropertyOp38
 70
     1
102
RTVSPropertyOp39
 70
     1
102
RTVSPropertyOp40
 70
     1
102
RTVSPropertyOp41
 70
     1
102
RTVSPropertyOp42
 70
     1
102
RTVSPropertyOp43
 70
     1
102
RTVSPropertyOp44
 70
     1
102
RTVSPropertyOp45
 70
     1
102
RTVSPropertyOp46
 70
     1
102
RTVSPropertyOp47
 70
     1
102
RTVSPropertyOp48
 70
     1
102
RTVSPropertyOp49
 70
     1
102
RTVSPropertyOp50
 70
     1
102
RTVSPropertyOp51
 70
     0
102
RTVSPropertyOp52
 70
     0
102
RTVSPropertyOp53
 70
     1
102
RTVSPropertyOp54
 70
     1
102
RTVSPropertyOp55
 70
     1
102
RTVSPropertyOp56
 70
     1
102
RTVSPropertyOp57
 70
     1
102
RTVSPropertyOp58
 70
     1
102
RTVSPropertyOp59
 70
     1
102
RTVSPropertyOp60
 70
     1
102
RTVSPropertyOp61
 70
     1
102
RTVSPropertyOp62
 70
     1
  0
XRECORD
  5
3820
102
{ACAD_REACTORS
330
381F
102
}
330
381F
100
AcDbXrecord
280
     1
102
RTVSPost2010Prop28
280
     0
102
RTVSPost2010PropOp28
 70
     1
102
RTVSPost2010Prop29
280
     1
102
RTVSPost2010PropOp29
 70
     1
102
RTVSPost2010Prop30
280
     1
102
RTVSPost2010PropOp30
 70
     1
102
RTVSPost2010Prop31
280
     0
102
RTVSPost2010PropOp31
 70
     1
102
RTVSPost2010Prop32
280
     0
102
RTVSPost2010PropOp32
 70
     1
102
RTVSPost2010Prop33
280
     0
102
RTVSPost2010PropOp33
 70
     1
102
RTVSPost2010Prop34
280
     0
102
RTVSPost2010PropOp34
 70
     1
102
RTVSPost2010Prop35
280
     0
102
RTVSPost2010PropOp35
 70
     1
102
RTVSPost2010Prop36
280
     0
102
RTVSPost2010PropOp36
 70
     1
102
RTVSPost2010Prop37
 90
       50
102
RTVSPost2010PropOp37
 70
     1
102
RTVSPost2010Prop38
140
0.0
102
RTVSPost2010PropOp38
 70
     1
102
RTVSPost2010Prop39
140
1.0
102
RTVSPost2010PropOp39
 70
     1
102
RTVSPost2010Prop40
 90
        0
102
RTVSPost2010PropOp40
 70
     1
102
RTVSPost2010Prop41ColorIndex
 90
       18
102
RTVSPost2010Prop41ColorRGB
 90
        0
102
RTVSPost2010PropOp41
 70
     1
102
RTVSPost2010Prop42
 90
       50
102
RTVSPost2010PropOp42
 70
     1
102
RTVSPost2010Prop43
 90
        3
102
RTVSPost2010PropOp43
 70
     1
102
RTVSPost2010Prop44ColorIndex
 90
        5
102
RTVSPost2010Prop44ColorRGB
 90
      255
102
RTVSPost2010PropOp44
 70
     1
102
RTVSPost2010Prop45
280
     0
102
RTVSPost2010PropOp45
 70
     1
102
RTVSPost2010Prop46
 90
       50
102
RTVSPost2010PropOp46
 70
     1
102
RTVSPost2010Prop47
 90
       50
102
RTVSPost2010PropOp47
 70
     1
102
RTVSPost2010Prop48
 90
       50
102
RTVSPost2010PropOp48
 70
     1
102
RTVSPost2010Prop49
280
     0
102
RTVSPost2010PropOp49
 70
     1
102
RTVSPost2010Prop50
 90
       50
102
RTVSPost2010PropOp50
 70
     1
102
RTVSPost2010Prop51ColorIndex
 90
      256
102
RTVSPost2010Prop51ColorRGB
 90
-16777216
102
RTVSPost2010PropOp51
 70
     0
102
RTVSPost2010Prop52
140
1.0
102
RTVSPost2010PropOp52
 70
     0
102
RTVSPost2010Prop53
 90
        2
102
RTVSPost2010PropOp53
 70
     1
102
RTVSPost2010Prop54
  1
strokes_ogs.tif
102
RTVSPost2010PropOp54
 70
     1
102
RTVSPost2010Prop55
280
     0
102
RTVSPost2010PropOp55
 70
     1
102
RTVSPost2010Prop56
140
1.0
102
RTVSPost2010PropOp56
 70
     1
102
RTVSPost2010Prop57
140
1.0
102
RTVSPost2010PropOp57
 70
     1
102
RTVSPropertyOp0
 70
     1
102
RTVSPropertyOp1
 70
     1
102
RTVSPropertyOp2
 70
     1
102
RTVSPropertyOp3
 70
     1
102
RTVSPropertyOp4
 70
     1
102
RTVSPropertyOp5
 70
     1
102
RTVSPropertyOp6
 70
     1
102
RTVSPropertyOp7
 70
     1
102
RTVSPropertyOp8
 70
     1
102
RTVSPropertyOp9
 70
     1
102
RTVSPropertyOp10
 70
     1
102
RTVSPropertyOp11
 70
     1
102
RTVSPropertyOp12
 70
     1
102
RTVSPropertyOp13
 70
     1
102
RTVSPropertyOp14
 70
     1
102
RTVSPropertyOp15
 70
     1
102
RTVSPropertyOp16
 70
     1
102
RTVSPropertyOp17
 70
     1
102
RTVSPropertyOp18
 70
     1
102
RTVSPropertyOp19
 70
     1
102
RTVSPropertyOp20
 70
     1
102
RTVSPropertyOp21
 70
     1
102
RTVSPropertyOp22
 70
     1
102
RTVSPropertyOp23
 70
     1
102
RTVSPropertyOp24
 70
     1
102
RTVSPropertyOp25
 70
     1
102
RTVSPropertyOp26
 70
     1
102
RTVSPropertyOp27
 70
     1
102
RTVSPropertyOp28
 70
     1
102
RTVSPropertyOp29
 70
     1
102
RTVSPropertyOp30
 70
     1
102
RTVSPropertyOp31
 70
     1
102
RTVSPropertyOp32
 70
     1
102
RTVSPropertyOp33
 70
     1
102
RTVSPropertyOp34
 70
     1
102
RTVSPropertyOp35
 70
     1
102
RTVSPropertyOp36
 70
     1
102
RTVSPropertyOp37
 70
     1
102
RTVSPropertyOp38
 70
     1
102
RTVSPropertyOp39
 70
     1
102
RTVSPropertyOp40
 70
     1
102
RTVSPropertyOp41
 70
     1
102
RTVSPropertyOp42
 70
     1
102
RTVSPropertyOp43
 70
     1
102
RTVSPropertyOp44
 70
     1
102
RTVSPropertyOp45
 70
     1
102
RTVSPropertyOp46
 70
     1
102
RTVSPropertyOp47
 70
     1
102
RTVSPropertyOp48
 70
     1
102
RTVSPropertyOp49
 70
     1
102
RTVSPropertyOp50
 70
     1
102
RTVSPropertyOp51
 70
     0
102
RTVSPropertyOp52
 70
     0
102
RTVSPropertyOp53
 70
     1
102
RTVSPropertyOp54
 70
     1
102
RTVSPropertyOp55
 70
     1
102
RTVSPropertyOp56
 70
     1
102
RTVSPropertyOp57
 70
     1
102
RTVSPropertyOp58
 70
     1
102
RTVSPropertyOp59
 70
     1
102
RTVSPropertyOp60
 70
     1
102
RTVSPropertyOp61
 70
     1
102
RTVSPropertyOp62
 70
     1
  0
XRECORD
  5
3838
102
{ACAD_REACTORS
330
3837
102
}
330
3837
100
AcDbXrecord
280
     1
102
RTVSPost2010Prop28
280
     0
102
RTVSPost2010PropOp28
 70
     1
102
RTVSPost2010Prop29
280
     1
102
RTVSPost2010PropOp29
 70
     1
102
RTVSPost2010Prop30
280
     1
102
RTVSPost2010PropOp30
 70
     1
102
RTVSPost2010Prop31
280
     0
102
RTVSPost2010PropOp31
 70
     1
102
RTVSPost2010Prop32
280
     0
102
RTVSPost2010PropOp32
 70
     1
102
RTVSPost2010Prop33
280
     0
102
RTVSPost2010PropOp33
 70
     1
102
RTVSPost2010Prop34
280
     0
102
RTVSPost2010PropOp34
 70
     1
102
RTVSPost2010Prop35
280
     0
102
RTVSPost2010PropOp35
 70
     1
102
RTVSPost2010Prop36
280
     0
102
RTVSPost2010PropOp36
 70
     1
102
RTVSPost2010Prop37
 90
       50
102
RTVSPost2010PropOp37
 70
     1
102
RTVSPost2010Prop38
140
0.0
102
RTVSPost2010PropOp38
 70
     1
102
RTVSPost2010Prop39
140
1.0
102
RTVSPost2010PropOp39
 70
     1
102
RTVSPost2010Prop40
 90
        0
102
RTVSPost2010PropOp40
 70
     1
102
RTVSPost2010Prop41ColorIndex
 90
       18
102
RTVSPost2010Prop41ColorRGB
 90
        0
102
RTVSPost2010PropOp41
 70
     1
102
RTVSPost2010Prop42
 90
       50
102
RTVSPost2010PropOp42
 70
     1
102
RTVSPost2010Prop43
 90
        3
102
RTVSPost2010PropOp43
 70
     1
102
RTVSPost2010Prop44ColorIndex
 90
        5
102
RTVSPost2010Prop44ColorRGB
 90
      255
102
RTVSPost2010PropOp44
 70
     1
102
RTVSPost2010Prop45
280
     0
102
RTVSPost2010PropOp45
 70
     1
102
RTVSPost2010Prop46
 90
       50
102
RTVSPost2010PropOp46
 70
     1
102
RTVSPost2010Prop47
 90
       50
102
RTVSPost2010PropOp47
 70
     1
102
RTVSPost2010Prop48
 90
       50
102
RTVSPost2010PropOp48
 70
     1
102
RTVSPost2010Prop49
280
     0
102
RTVSPost2010PropOp49
 70
     1
102
RTVSPost2010Prop50
 90
       50
102
RTVSPost2010PropOp50
 70
     1
102
RTVSPost2010Prop51ColorIndex
 90
      256
102
RTVSPost2010Prop51ColorRGB
 90
-16777216
102
RTVSPost2010PropOp51
 70
     0
102
RTVSPost2010Prop52
140
1.0
102
RTVSPost2010PropOp52
 70
     0
102
RTVSPost2010Prop53
 90
        2
102
RTVSPost2010PropOp53
 70
     1
102
RTVSPost2010Prop54
  1
strokes_ogs.tif
102
RTVSPost2010PropOp54
 70
     1
102
RTVSPost2010Prop55
280
     0
102
RTVSPost2010PropOp55
 70
     1
102
RTVSPost2010Prop56
140
1.0
102
RTVSPost2010PropOp56
 70
     1
102
RTVSPost2010Prop57
140
1.0
102
RTVSPost2010PropOp57
 70
     1
102
RTVSPropertyOp0
 70
     1
102
RTVSPropertyOp1
 70
     1
102
RTVSPropertyOp2
 70
     1
102
RTVSPropertyOp3
 70
     1
102
RTVSPropertyOp4
 70
     1
102
RTVSPropertyOp5
 70
     1
102
RTVSPropertyOp6
 70
     1
102
RTVSPropertyOp7
 70
     1
102
RTVSPropertyOp8
 70
     1
102
RTVSPropertyOp9
 70
     1
102
RTVSPropertyOp10
 70
     1
102
RTVSPropertyOp11
 70
     1
102
RTVSPropertyOp12
 70
     1
102
RTVSPropertyOp13
 70
     1
102
RTVSPropertyOp14
 70
     1
102
RTVSPropertyOp15
 70
     1
102
RTVSPropertyOp16
 70
     1
102
RTVSPropertyOp17
 70
     1
102
RTVSPropertyOp18
 70
     1
102
RTVSPropertyOp19
 70
     1
102
RTVSPropertyOp20
 70
     1
102
RTVSPropertyOp21
 70
     1
102
RTVSPropertyOp22
 70
     1
102
RTVSPropertyOp23
 70
     1
102
RTVSPropertyOp24
 70
     1
102
RTVSPropertyOp25
 70
     1
102
RTVSPropertyOp26
 70
     1
102
RTVSPropertyOp27
 70
     1
102
RTVSPropertyOp28
 70
     1
102
RTVSPropertyOp29
 70
     1
102
RTVSPropertyOp30
 70
     1
102
RTVSPropertyOp31
 70
     1
102
RTVSPropertyOp32
 70
     1
102
RTVSPropertyOp33
 70
     1
102
RTVSPropertyOp34
 70
     1
102
RTVSPropertyOp35
 70
     1
102
RTVSPropertyOp36
 70
     1
102
RTVSPropertyOp37
 70
     1
102
RTVSPropertyOp38
 70
     1
102
RTVSPropertyOp39
 70
     1
102
RTVSPropertyOp40
 70
     1
102
RTVSPropertyOp41
 70
     1
102
RTVSPropertyOp42
 70
     1
102
RTVSPropertyOp43
 70
     1
102
RTVSPropertyOp44
 70
     1
102
RTVSPropertyOp45
 70
     1
102
RTVSPropertyOp46
 70
     1
102
RTVSPropertyOp47
 70
     1
102
RTVSPropertyOp48
 70
     1
102
RTVSPropertyOp49
 70
     1
102
RTVSPropertyOp50
 70
     1
102
RTVSPropertyOp51
 70
     0
102
RTVSPropertyOp52
 70
     0
102
RTVSPropertyOp53
 70
     1
102
RTVSPropertyOp54
 70
     1
102
RTVSPropertyOp55
 70
     1
102
RTVSPropertyOp56
 70
     1
102
RTVSPropertyOp57
 70
     1
102
RTVSPropertyOp58
 70
     1
102
RTVSPropertyOp59
 70
     1
102
RTVSPropertyOp60
 70
     1
102
RTVSPropertyOp61
 70
     1
102
RTVSPropertyOp62
 70
     1
  0
ENDSEC
  0
EOF
